[GSCQ][美国史诗 American Epic 第一季][全04集打包][英语英字][MKV][1080P] 2015 美国 纪录 打包

love2001 2018-11-09 15:42 1176

◎译  名 美国史诗

◎片  名 American Epic

◎年  代 2015

◎产  地 美国

◎类  别 纪录片/音乐

◎语  言 英语

◎IMDb评分  7.5/10 from 62 users

◎IMDb链接  http://www.imdb.com/title/tt4587946/

◎集  数 4

◎导  演 T Bone Burnett / Allison McGourty / Jack White

◎主  演 Beck

      Elton John

      Willie Nelson

      Jack White


◎简  介


  AMERICAN EPIC takes us on a journey across time to the birth of modern music, when the musical strands of a diverse nation first combined, sparking a cultural renaissance that forever transformed the future of music and the world.


Video
ID : 1
Format : AVC
Format/Info : Advanced Video Codec
Format profile : High@L4
Format settings : CABAC / 4 Ref Frames
Format settings, CABAC : Yes
Format settings, ReFrames : 4 frames
Codec ID : V_MPEG4/ISO/AVC
Duration : 1 h 56 min
Bit rate : 7 859 kb/s
Width : 1 920 pixels
Height : 1 080 pixels
Display aspect ratio : 16:9
Frame rate mode : Constant
Frame rate : 23.976 (24000/1001) FPS
Color space : YUV
Chroma subsampling : 4:2:0
Bit depth : 8 bits
Scan type : Progressive
Bits/(Pixel*Frame) : 0.158
Stream size : 6.40 GiB (97%)
Default : Yes
Forced : No
Color range : Limited
Color primaries : BT.709
Transfer characteristics : BT.709
Matrix coefficients : BT.709

Audio
ID : 2
Format : E-AC-3
Format/Info : Enhanced AC-3
Commercial name : Dolby Digital Plus
Codec ID : A_EAC3
Duration : 1 h 56 min
Bit rate mode : Constant
Bit rate : 224 kb/s
Channel(s) : 2 channels
Channel layout : L R
Sampling rate : 48.0 kHz
Frame rate : 31.250 FPS (1536 SPF)
Compression mode : Lossy
Stream size : 187 MiB (3%)
Language : English
Service kind : Complete Main
Default : Yes
Forced : No

Text
ID : 3
Format : UTF-8
Codec ID : S_TEXT/UTF8
Codec ID/Info : UTF-8 Plain Text
Duration : 1 h 50 min
Bit rate : 73 b/s
Count of elements : 1905
Stream size : 59.9 KiB (0%)
Title : English (SDH)
Language : English
Default : No
Forced : No



上传的附件:
最新回复 (0)
返回