[GSCQ][余光/Lights Out 第一季][全13集打包][英语无字][MKV][720P] 2010 美国 剧情 打包

love2001 2018-11-09 15:41 648

◎译  名 余光

◎片  名 Lights Out

◎年  代 2010

◎产  地 美国

◎类  别 剧情

◎语  言 英语

◎上映日期 2010

◎IMDb评分  8.0/10 from 2,884 users

◎IMDb链接  http://www.imdb.com/title/tt1379690/

◎集  数 13

◎片  长 USA: 60 分钟

◎导  演 Clark Johnson

◎主  演 Holt McCallany

      Elias Koteas

      Melora Hardin


◎简  介


   FX 新剧《余光》(Lights Out)是一部典型的男性剧集,女演员的戏份很少。故事从拳击手Patrick Leary(Holt McCallany扮演)失去世界重量级拳王金腰带开始。Patrick对自己的失败十分痛苦,总想着东山再起,但他的妻子Theresa却不赞成丈夫这么做。Theresa下达了最后通牒:「拳击赛场太危险,我不想看着你死。要么你退出比赛,要么我们离婚。」


     于是Patrick收手了,一停就是五年。他老老实实地扮演着家庭主男的角色,送妻子去读医学院,每天早上很早爬起来做早餐,准时开车送三个女儿去学校,让父亲照看他的拳击运动场,让兄弟管理他的财产。他想安安静静地享受生活,但天不遂人愿,一场经济危机使他失去了大部分财产--他的兄弟债台高筑,他的拳击场也因为没有高质量的比赛和有名望的拳击手加盟而变得十分萧条。更糟的是,当年将他赶下世界拳王宝座的拳击手不停在公众场合羞辱他,叫嚣着要和他再赛一场。经过一番考虑,Patrick决定重返赛场。


     这部剧集有很强的《洛基》与《黑道家族》合体的味道。虽然每年都有一些反映拳击手的电影出现,但电视剧却不多见,喜欢拳击运动、拳击手、励志故事或者「男人味」的朋友不要错过。


Video
ID : 1
Format : AVC
Format/Info : Advanced Video Codec
Format profile : High@L3.1
Format settings : 2 Ref Frames
Format settings, CABAC : No
Format settings, ReFrames : 2 frames
Codec ID : V_MPEG4/ISO/AVC
Duration : 42 min 16 s
Bit rate : 4 175 kb/s
Width : 1 280 pixels
Height : 720 pixels
Display aspect ratio : 16:9
Frame rate mode : Constant
Frame rate : 23.976 FPS
Color space : YUV
Chroma subsampling : 4:2:0
Bit depth : 8 bits
Scan type : Progressive
Bits/(Pixel*Frame) : 0.189
Stream size : 1.23 GiB (90%)
Language : English
Default : Yes
Forced : No
Color range : Limited
Color primaries : BT.709
Transfer characteristics : BT.709
Matrix coefficients : BT.709

Audio
ID : 2
Format : AC-3
Format/Info : Audio Coding 3
Codec ID : A_AC3
Duration : 42 min 16 s
Bit rate mode : Constant
Bit rate : 384 kb/s
Channel(s) : 6 channels
Channel positions : Front: L C R, Side: L R, LFE
Sampling rate : 48.0 kHz
Frame rate : 31.250 FPS (1536 SPF)
Bit depth : 16 bits
Compression mode : Lossy
Stream size : 116 MiB (8%)
Title : English
Language : English
Service kind : Complete Main
Default : Yes
Forced : No



上传的附件:
最新回复 (0)
返回