[GSCQ][贱精姐弟/Siblings 第一至二季][全02季打包][英语无字][MKV][1080P] 2014 英国 喜剧 打包

love2001 2018-11-09 15:40 816

◎译  名 贱精姐弟

◎片  名 Siblings 

◎年  代 2014

◎产  地 英国

◎类  别 喜剧

◎语  言 英语

◎上映日期 2014-08-07(英国)

◎IMDb评分  7.0/10 from 860 users

◎IMDb链接  http://www.imdb.com/title/tt3449528/

◎豆瓣评分 6.8/10 from 894 users

◎豆瓣链接 https://movie.douban.com/subject/25812212/

◎片  长 40分钟

◎导  演 丹·泽夫 Dan Zeff

◎主  演 夏洛特·里奇 Charlotte Ritchie

      汤姆·斯托顿 Tom Stourton


◎简  介


  《贱精姐弟》是BBC3即将播出的一部新喜剧,女主角是来自Fresh Meat的Charlotte Ritchie,男主角则是Tom Stourton;故事主要描述这对懒惰、讨人嫌、以自我为中心的姐弟故事,他们无论去到哪里吗,都会引发一片混乱;他们不断地让身边的亲友不得安宁,任何不小心招惹了他们的人都会被他们攻击得体无完肤


Video
ID : 1
Format : AVC
Format/Info : Advanced Video Codec
Format profile : High@L4
Format settings : CABAC / 4 Ref Frames
Format settings, CABAC : Yes
Format settings, ReFrames : 4 frames
Codec ID : V_MPEG4/ISO/AVC
Duration : 28 min 53 s
Bit rate : 5 822 kb/s
Width : 1 920 pixels
Height : 1 080 pixels
Display aspect ratio : 16:9
Frame rate mode : Constant
Frame rate : 25.000 FPS
Color space : YUV
Chroma subsampling : 4:2:0
Bit depth : 8 bits
Scan type : Progressive
Bits/(Pixel*Frame) : 0.112
Stream size : 1.17 GiB (99%)
Default : Yes
Forced : No

Audio
ID : 2
Format : AAC
Format/Info : Advanced Audio Codec
Format profile : HE-AAC / LC
Format settings : Explicit
Codec ID : A_AAC-2
Duration : 28 min 53 s
Bit rate : 64.0 kb/s
Channel(s) : 2 channels
Channel positions : Front: L R
Sampling rate : 48.0 kHz / 24.0 kHz
Frame rate : 23.438 FPS (1024 SPF)
Compression mode : Lossy
Stream size : 13.2 MiB (1%)
Language : English
Default : Yes
Forced : No

Text
ID : 3
Format : UTF-8
Codec ID : S_TEXT/UTF8
Codec ID/Info : UTF-8 Plain Text
Duration : 28 min 5 s
Bit rate : 117 b/s
Count of elements : 623
Stream size : 24.1 KiB (0%)
Title : English (SDH)
Language : English
Default : No
Forced : No



上传的附件:
最新回复 (0)
返回