[GSCQ][3P/三人行 Threesome 第一至二季][全02季打包][英语英字][MKV][1080P] 2011 英国 喜剧 打包

love2001 2018-11-08 15:32 2028

◎译  名 3P/三人行

◎片  名 Threesome

◎年  代 2011

◎产  地 英国

◎类  别 喜剧

◎语  言 英语

◎上映日期 2011-10-17

◎片  长 30分钟

◎导  演 Tim MacRae

◎主  演 埃那姆·埃利奥特 Emun Elliott

      艾米·胡伯曼 Amy Huberman

      斯蒂芬·怀特 Stephen Wight


◎简  介


  爱丽丝(Amy Huberman 饰)和男友米奇(Stephen Wight 饰)还有基友里奇(Emun Elliott 饰)一起生活。三人都站在30岁边缘,难舍难分的友谊让他们构建了一个外人无法理解的等边三角形。然而一次生日狂欢让他们发生了计划外的3P行为并当场中招:爱丽丝怀孕了!爸爸还是个基!三个长不大的年轻人决定仍然在一起,然而原本幸福的小世界是否会因为小孩的到来而倾斜?轻松可爱的基情,时髦前卫的生活态度,让人捧腹的英式幽默。“爱丽丝,你愿意嫁给我和给他生个小孩吗”,在荒诞离谱的求婚中3P人生正式开启。


Video
ID : 1
Format : AVC
Format/Info : Advanced Video Codec
Format profile : High@L4
Format settings : CABAC / 4 Ref Frames
Format settings, CABAC : Yes
Format settings, ReFrames : 4 frames
Codec ID : V_MPEG4/ISO/AVC
Duration : 23 min 23 s
Bit rate : 5 635 kb/s
Width : 1 920 pixels
Height : 1 080 pixels
Display aspect ratio : 16:9
Frame rate mode : Constant
Frame rate : 25.000 FPS
Color space : YUV
Chroma subsampling : 4:2:0
Bit depth : 8 bits
Scan type : Progressive
Bits/(Pixel*Frame) : 0.109
Stream size : 943 MiB (99%)
Default : Yes
Forced : No

Audio
ID : 2
Format : AAC
Format/Info : Advanced Audio Codec
Format profile : HE-AAC / LC
Format settings : Explicit
Codec ID : A_AAC-2
Duration : 23 min 23 s
Bit rate : 64.0 kb/s
Channel(s) : 2 channels
Channel positions : Front: L R
Sampling rate : 48.0 kHz / 24.0 kHz
Frame rate : 23.438 FPS (1024 SPF)
Compression mode : Lossy
Stream size : 10.7 MiB (1%)
Language : English
Default : Yes
Forced : No

Text
ID : 3
Format : UTF-8
Codec ID : S_TEXT/UTF8
Codec ID/Info : UTF-8 Plain Text
Duration : 23 min 9 s
Bit rate : 88 b/s
Count of elements : 453
Stream size : 15.1 KiB (0%)
Title : English (SDH)
Language : English
Default : No
Forced : No



上传的附件:
最新回复 (0)
返回