[GSCQ][Víctor Ros 第一季][全06集打包][西语西字][MKV][1080P] 2018 西剧 剧情 打包

love2001 2018-11-08 15:31 960

◎译  名 

◎片  名 Víctor Ros Season 1

◎年  代 2015

◎产  地 西班牙

◎上映日期 2015-01-12

◎IMDb评分  7.3/10 from 214 users

◎IMDb链接  http://www.imdb.com/title/tt3116086/

◎集  数 6

◎片  长 0分钟

◎主  演 卡雷斯·法兰西诺 Carles Francino

      Esmeralda Moya

      Megan Montaner

      Tomás del Estal


◎简  介


  Víctor Ros Miniserie de TV (6 episodios). Basada en las conocidas novelas de misterio e investigación de Jerónimo Tristante en el Madrid del siglo XIX. Víctor Ros en un brillante policía de la Brigada Metropolitana de Madrid, el primer cuerpo de élite español que emplea técnicas científicas y deductivas. Entre los personajes están Clara Alvear, una joven de una familia tradicional y que vivirá su historia de amor con el inspector. Lola ?La Valenciana\', amiga del protagonista que trabaja en un burdel. Don Armando, padrino y jefe de Ros. Y Roberto Aldanza, personaje noble, instruido y adelantado a su época.



Video
ID : 1
Format : AVC
Format/Info : Advanced Video Codec
Format profile : High@L4
Format settings : CABAC / 4 Ref Frames
Format settings, CABAC : Yes
Format settings, ReFrames : 4 frames
Codec ID : V_MPEG4/ISO/AVC
Duration : 1 h 18 min
Bit rate mode : Variable
Bit rate : 10.4 Mb/s
Maximum bit rate : 15.0 Mb/s
Width : 1 920 pixels
Height : 1 080 pixels
Display aspect ratio : 16:9
Frame rate mode : Constant
Frame rate : 25.000 FPS
Color space : YUV
Chroma subsampling : 4:2:0
Bit depth : 8 bits
Scan type : Progressive
Bits/(Pixel*Frame) : 0.201
Stream size : 5.69 GiB (98%)
Default : Yes
Forced : No
Color range : Limited
Color primaries : BT.709
Transfer characteristics : BT.709
Matrix coefficients : BT.709

Audio
ID : 2
Format : E-AC-3
Format/Info : Enhanced Audio Coding 3
Codec ID : A_EAC3
Duration : 1 h 18 min
Bit rate mode : Constant
Bit rate : 224 kb/s
Channel(s) : 2 channels
Channel positions : Front: L R
Sampling rate : 48.0 kHz
Frame rate : 187.500 FPS (256 SPF)
Compression mode : Lossy
Stream size : 125 MiB (2%)
Language : Spanish
Service kind : Complete Main
Default : Yes
Forced : No

Text
ID : 3
Format : UTF-8
Codec ID : S_TEXT/UTF8
Codec ID/Info : UTF-8 Plain Text
Duration : 1 h 18 min
Bit rate : 73 b/s
Count of elements : 1151
Stream size : 42.0 KiB (0%)
Title : SDH
Language : Spanish
Default : No
Forced : No



上传的附件:
最新回复 (0)
返回