[GSCQ][高堡奇人 The Man in the High Castle 第三季][全10集打包][英语中字][MKV][1080P] 2018 美国 科幻 打包 中文字幕

love2001 2018-11-08 15:28 1248

注:亚马逊版片源 内含官方中字  更多字幕详见下面参数列表


◎译  名 高堡奇人 第三季/高城堡里的人

◎片  名 The Man in the High Castle Season 3

◎年  代 2018

◎产  地 美国

◎类  别 剧情/科幻/惊悚

◎语  言 英语

◎上映日期 2018-10-05(美国)

◎集  数 10

◎片  长 60

◎导  演 丹尼尔·伯希威尔 Daniel Percival

◎主  演 艾莉克莎·黛沃洛斯 Alexa Davalos

      卢夫斯·塞维尔 Rufus Sewell

      卢克·克莱恩坦克 Luke Kleintank

      贝拉·希思科特 Bella Heathcote

      田川洋行 Cary-Hiroyuki Tagawa


◎简  介


  自由钟被熔解了,自由女神像被推倒了,但是美国街头反抗纳粹法西斯统治的抵抗运动却越来越活跃,革命的旗帜再次竖起。在第三季中,Juliana Crain前往中立区寻求庇护,但她无法摆脱自己的命运。她意识到自己与贸易大臣Tagomi的命运已经交织在一起,两人必须合作才能破解仅存的那批影片的秘密。与此同时,纳粹德国与日本帝国的紧张关系持续加剧,Joe Blake从柏林回到旧金山执行外交斡旋任务。Joe和Juliana重逢了,两人的关系到了十分关键的转折点。John Smith指挥官受到纳粹高层的重视和欢迎,但北美的政治势力对他步步紧逼,Lincoln Rockwell和J. Edgar Hoover都在密谋对付他。Helen为了保护家人而采取激进手段,但是Thomas之死对这个家庭打击太大,他们根本无法摆脱整件事的阴影。Smith得知一个野心很大的、令人震惊的纳粹新项目正在实施,不仅对他本人有影响,甚至对全球的命运都有重大影响。


Video
ID : 1
Format : AVC
Format/Info : Advanced Video Codec
Format profile : High@L4
Format settings : CABAC / 4 Ref Frames
Format settings, CABAC : Yes
Format settings, ReFrames : 4 frames
Codec ID : V_MPEG4/ISO/AVC
Duration : 1 h 10 min
Bit rate mode : Variable
Bit rate : 5 700 kb/s
Maximum bit rate : 15.0 Mb/s
Width : 1 920 pixels
Height : 1 080 pixels
Display aspect ratio : 16:9
Frame rate mode : Constant
Frame rate : 23.976 (24000/1001) FPS
Color space : YUV
Chroma subsampling : 4:2:0
Bit depth : 8 bits
Scan type : Progressive
Bits/(Pixel*Frame) : 0.115
Stream size : 2.79 GiB (90%)
Default : Yes
Forced : No
Color range : Limited
Color primaries : BT.709
Transfer characteristics : BT.709
Matrix coefficients : BT.709

Audio
ID : 2
Format : E-AC-3
Format/Info : Enhanced Audio Coding 3
Codec ID : A_EAC3
Duration : 1 h 10 min
Bit rate mode : Constant
Bit rate : 640 kb/s
Channel(s) : 6 channels
Channel positions : Front: L C R, Side: L R, LFE
Sampling rate : 48.0 kHz
Frame rate : 187.500 FPS (256 SPF)
Compression mode : Lossy
Stream size : 321 MiB (10%)
Language : English
Service kind : Complete Main
Default : Yes
Forced : No

Text #1
ID : 3
Format : UTF-8
Codec ID : S_TEXT/UTF8
Codec ID/Info : UTF-8 Plain Text
Duration : 31 min 7 s
Bit rate : 2 b/s
Count of elements : 23
Stream size : 548 Bytes (0%)
Title : Forced
Language : English
Default : Yes
Forced : Yes

Text #2
ID : 4
Format : UTF-8
Codec ID : S_TEXT/UTF8
Codec ID/Info : UTF-8 Plain Text
Duration : 1 h 7 min
Bit rate : 54 b/s
Count of elements : 1034
Stream size : 27.0 KiB (0%)
Title : SDH
Language : English
Default : No
Forced : No

Text #3
ID : 5
Format : UTF-8
Codec ID : S_TEXT/UTF8
Codec ID/Info : UTF-8 Plain Text
Duration : 1 h 7 min
Bit rate : 63 b/s
Count of elements : 691
Stream size : 31.5 KiB (0%)
Language : Arabic
Default : No
Forced : No

Text #4
ID : 6
Format : UTF-8
Codec ID : S_TEXT/UTF8
Codec ID/Info : UTF-8 Plain Text
Duration : 1 h 7 min
Bit rate : 38 b/s
Count of elements : 689
Stream size : 19.2 KiB (0%)
Language : Chinese
Default : No
Forced : No

Text #5
ID : 7
Format : UTF-8
Codec ID : S_TEXT/UTF8
Codec ID/Info : UTF-8 Plain Text
Duration : 1 h 7 min
Bit rate : 38 b/s
Count of elements : 689
Stream size : 19.2 KiB (0%)
Language : Chinese
Default : No
Forced : No

Text #6
ID : 8
Format : UTF-8
Codec ID : S_TEXT/UTF8
Codec ID/Info : UTF-8 Plain Text
Duration : 1 h 7 min
Bit rate : 42 b/s
Count of elements : 699
Stream size : 21.1 KiB (0%)
Language : Danish
Default : No
Forced : No

Text #7
ID : 9
Format : UTF-8
Codec ID : S_TEXT/UTF8
Codec ID/Info : UTF-8 Plain Text
Duration : 1 h 7 min
Bit rate : 42 b/s
Count of elements : 571
Stream size : 20.9 KiB (0%)
Language : German
Default : No
Forced : No

Text #8
ID : 10
Format : UTF-8
Codec ID : S_TEXT/UTF8
Codec ID/Info : UTF-8 Plain Text
Duration : 1 h 7 min
Bit rate : 43 b/s
Count of elements : 688
Stream size : 21.5 KiB (0%)
Language : Spanish
Default : No
Forced : No

Text #9
ID : 11
Format : UTF-8
Codec ID : S_TEXT/UTF8
Codec ID/Info : UTF-8 Plain Text
Duration : 1 h 7 min
Bit rate : 43 b/s
Count of elements : 688
Stream size : 21.5 KiB (0%)
Language : Spanish
Default : No
Forced : No

Text #10
ID : 12
Format : UTF-8
Codec ID : S_TEXT/UTF8
Codec ID/Info : UTF-8 Plain Text
Duration : 1 h 7 min
Bit rate : 43 b/s
Count of elements : 679
Stream size : 21.2 KiB (0%)
Language : Finnish
Default : No
Forced : No

Text #11
ID : 13
Format : UTF-8
Codec ID : S_TEXT/UTF8
Codec ID/Info : UTF-8 Plain Text
Duration : 1 h 7 min
Bit rate : 45 b/s
Count of elements : 682
Stream size : 22.2 KiB (0%)
Language : French
Default : No
Forced : No

Text #12
ID : 14
Format : UTF-8
Codec ID : S_TEXT/UTF8
Codec ID/Info : UTF-8 Plain Text
Duration : 1 h 7 min
Bit rate : 60 b/s
Count of elements : 691
Stream size : 29.6 KiB (0%)
Language : Hebrew
Default : No
Forced : No

Text #13
ID : 15
Format : UTF-8
Codec ID : S_TEXT/UTF8
Codec ID/Info : UTF-8 Plain Text
Duration : 1 h 7 min
Bit rate : 108 b/s
Count of elements : 690
Stream size : 53.6 KiB (0%)
Language : Hindi
Default : No
Forced : No

Text #14
ID : 16
Format : UTF-8
Codec ID : S_TEXT/UTF8
Codec ID/Info : UTF-8 Plain Text
Duration : 1 h 7 min
Bit rate : 44 b/s
Count of elements : 690
Stream size : 21.8 KiB (0%)
Language : Indonesian
Default : No
Forced : No

Text #15
ID : 17
Format : UTF-8
Codec ID : S_TEXT/UTF8
Codec ID/Info : UTF-8 Plain Text
Duration : 1 h 7 min
Bit rate : 44 b/s
Count of elements : 686
Stream size : 21.7 KiB (0%)
Language : Italian
Default : No
Forced : No

Text #16
ID : 18
Format : UTF-8
Codec ID : S_TEXT/UTF8
Codec ID/Info : UTF-8 Plain Text
Duration : 1 h 7 min
Bit rate : 40 b/s
Count of elements : 692
Stream size : 19.9 KiB (0%)
Language : Japanese
Default : No
Forced : No

Text #17
ID : 19
Format : UTF-8
Codec ID : S_TEXT/UTF8
Codec ID/Info : UTF-8 Plain Text
Duration : 1 h 7 min
Bit rate : 51 b/s
Count of elements : 691
Stream size : 25.6 KiB (0%)
Language : Korean
Default : No
Forced : No

Text #18
ID : 20
Format : UTF-8
Codec ID : S_TEXT/UTF8
Codec ID/Info : UTF-8 Plain Text
Duration : 1 h 7 min
Bit rate : 41 b/s
Count of elements : 687
Stream size : 20.6 KiB (0%)
Language : Norwegian Bokmal
Default : No
Forced : No

Text #19
ID : 21
Format : UTF-8
Codec ID : S_TEXT/UTF8
Codec ID/Info : UTF-8 Plain Text
Duration : 1 h 7 min
Bit rate : 41 b/s
Count of elements : 685
Stream size : 20.3 KiB (0%)
Language : Dutch
Default : No
Forced : No

Text #20
ID : 22
Format : UTF-8
Codec ID : S_TEXT/UTF8
Codec ID/Info : UTF-8 Plain Text
Duration : 1 h 7 min
Bit rate : 40 b/s
Count of elements : 681
Stream size : 19.9 KiB (0%)
Language : Polish
Default : No
Forced : No

Text #21
ID : 23
Format : UTF-8
Codec ID : S_TEXT/UTF8
Codec ID/Info : UTF-8 Plain Text
Duration : 1 h 7 min
Bit rate : 45 b/s
Count of elements : 688
Stream size : 22.2 KiB (0%)
Language : Portuguese
Default : No
Forced : No

Text #22
ID : 24
Format : UTF-8
Codec ID : S_TEXT/UTF8
Codec ID/Info : UTF-8 Plain Text
Duration : 1 h 7 min
Bit rate : 75 b/s
Count of elements : 686
Stream size : 37.1 KiB (0%)
Language : Russian
Default : No
Forced : No

Text #23
ID : 25
Format : UTF-8
Codec ID : S_TEXT/UTF8
Codec ID/Info : UTF-8 Plain Text
Duration : 1 h 7 min
Bit rate : 43 b/s
Count of elements : 686
Stream size : 21.2 KiB (0%)
Language : Swedish
Default : No
Forced : No

Text #24
ID : 26
Format : UTF-8
Codec ID : S_TEXT/UTF8
Codec ID/Info : UTF-8 Plain Text
Duration : 1 h 7 min
Bit rate : 43 b/s
Count of elements : 688
Stream size : 21.6 KiB (0%)
Language : Turkish
Default : No
Forced : No

Menu
00:00:00.000 : en:Amazon Original
00:00:05.000 : en:Previously On
00:04:08.000 : en:The Resistance persists
00:05:48.000 : en:Opening Credits
00:07:17.000 : en:The Nazi\'s try to extract information
00:08:21.000 : en:The Japanese test their new weapon
00:10:46.000 : en:Juliana needs help finding an address
00:13:06.000 : en:Trudy is getting anxious
00:14:02.000 : en:Obergruppenführer returns home
00:15:07.000 : en:Juliana checks on Trudy
00:17:21.000 : en:Helen is still mourning over Thomas
00:19:14.000 : en:Joe does what he must to have a heart of steel
00:24:19.000 : en:Hawthorne has a revelation
00:27:54.000 : en:Juliana realizes they\'re no longer safe
00:31:51.000 : en:Inspector Kido hires a new Sergeant
00:35:12.000 : en:Joe returns home to the US
00:37:09.000 : en:Billy Turner gets a new staff member to head up propaganda
00:39:32.000 : en:Juliana gets to know Wyatt
00:47:05.000 : en:Juliana and Trudy flee
00:48:15.000 : en:Nicole and Joe reunite
00:52:20.000 : en:The Smith family copes with losing Thomas
00:55:20.000 : en:The Smith\'s celebrate the life and sacrifice of Thomas
00:59:29.000 : en:The Nazi Party honors Thomas\' sacrifice
01:04:10.000 : en:Tagomi gets an unexpected visitor
01:05:47.000 : en:Raeder delivers Joe\'s new credentials
01:07:48.000 : en:End Credits



上传的附件:
最新回复 (0)
返回