[GSCQ][衰落与瓦解/衰亡 Decline And Fall 第一季][全03集打包][英语英字][MKV][1080P] 2017 英国 喜剧 打包

love2001 2018-11-07 16:17 1152

◎译  名 衰落与瓦解

◎片  名 Decline And Fall

◎年  代 2017

◎产  地 英国

◎类  别 喜剧

◎语  言 英语

◎上映日期 2017-03-31(英国)

◎IMDb评分  6.7/10 from 724 users

◎IMDb链接  http://www.imdb.com/title/tt5789958/

◎豆瓣评分 7.8/10 from 622 users

◎豆瓣链接 https://movie.douban.com/subject/26743474/

◎集  数 3

◎片  长 60分钟

◎导  演 吉列尔莫·莫拉莱斯 Guillem Morales

◎主  演 马修·比尔德 Matthew Beard

      斯蒂芬·格拉汉姆 Stephen Graham

      道格拉斯·霍奇斯 Douglas Hodges

      奥斯卡·肯尼迪 Oscar Kennedy

      伊娃·朗格利亚 Eva Longoria

      大卫·苏切特 David Suchet

      杰克·怀特霍尔 Jack Whitehall

      雨果· 比兹利 Hugo Beazley

      维森特·富兰克林 Vincent Franklin

      托尼·吉尔福伊尔 Tony Guilfoyle


◎简  介


  1920年代的威尔士,男主Paul Pennyfeather( Jack Whitehall饰演)因放荡不羁的生活被牛津大学开除,在一家男子私学找到工作,在那里他遇见女主Margot Beste-Chetwynde(Eva Longoria饰演)。女主来自南美的白富美,成为男主的追逐对象。该剧为3集,由英剧《烦恼的牧师》(Rev.)编剧James Wood负责改编,电影《茱莉亚的眼睛》和英剧《9号秘事》导演Guillem Morales执导。



Video
ID : 1
Format : AVC
Format/Info : Advanced Video Codec
Format profile : High@L4
Format settings : CABAC / 4 Ref Frames
Format settings, CABAC : Yes
Format settings, ReFrames : 4 frames
Codec ID : V_MPEG4/ISO/AVC
Duration : 56 min 28 s
Bit rate mode : Variable
Bit rate : 10.0 Mb/s
Maximum bit rate : 15.0 Mb/s
Width : 1 920 pixels
Height : 1 080 pixels
Display aspect ratio : 16:9
Frame rate mode : Constant
Frame rate : 25.000 FPS
Color space : YUV
Chroma subsampling : 4:2:0
Bit depth : 8 bits
Scan type : Progressive
Bits/(Pixel*Frame) : 0.193
Stream size : 3.96 GiB (94%)
Default : Yes
Forced : No
Color range : Limited
Color primaries : BT.709
Transfer characteristics : BT.709
Matrix coefficients : BT.709

Audio
ID : 2
Format : E-AC-3
Format/Info : Enhanced Audio Coding 3
Codec ID : A_EAC3
Duration : 56 min 28 s
Bit rate mode : Constant
Bit rate : 640 kb/s
Channel(s) : 6 channels
Channel positions : Front: L C R, Side: L R, LFE
Sampling rate : 48.0 kHz
Frame rate : 187.500 FPS (256 SPF)
Compression mode : Lossy
Stream size : 259 MiB (6%)
Language : English
Service kind : Complete Main
Default : Yes
Forced : No

Text
ID : 3
Format : UTF-8
Codec ID : S_TEXT/UTF8
Codec ID/Info : UTF-8 Plain Text
Duration : 55 min 56 s
Bit rate : 74 b/s
Count of elements : 1002
Stream size : 30.4 KiB (0%)
Language : English
Default : No
Forced : No



上传的附件:
最新回复 (0)
返回