[GSCQ][静电侠/Static Shock 第一至四季][全04季打包][英语英字][MKV] 更早 美国 动画 打包

love2001 2018-11-06 16:05 2256

◎译  名 静电侠

◎片  名 Static Shock

◎年  代 2000

◎产  地 美国

◎类  别 动画/动作/冒险/家庭/科幻

◎语  言 英语

◎上映日期 2000-09-23

◎IMDb评分  7.4/10 from 3,992 users

◎IMDb链接  http://www.imdb.com/title/tt0247729/

◎集  数 52

◎片  长 USA: 30 分钟(52 episodes)

◎导  演 Dwayne McDuffie / Christopher James Priest

◎主  演 菲尔·拉马 Phil LaMarr

      杰森·马斯登 Jason Marsden

      凯文·迈克尔·理查德森 Kevin Michael Richardson


◎简  介


  In Dakota City, Virgil Hawkins is an ordinary kid who gets into big trouble, which gets him pressured into joining a street gang. That night, Virgil's gang has a major rumble at a chemical storage yard that the police interrupt by tear gassing the lot. That gassing accidentally detonates a series of chemical explosions that creates the infamous "Bang Baby Incident" that affects all the gangs and more. For instance, Virgil gains the powerful ability to project and control electricity at will. With the help of his inventive friend, Richie (who would much later get his own powers to become Gear), Virgil decides to become the superhero, Static. As it happens, this new career is well timed considering many of the surviving rumblers also become superpowered themselves and become dangerous supervillians. Against this new and growing threat, Static is determined to fight for justice, even while his personal life gets a major shock to its system


Video
ID : 1
Format : AVC
Format/Info : Advanced Video Codec
Format profile : Baseline@L3
Format settings : 4 Ref Frames
Format settings, CABAC : No
Format settings, ReFrames : 4 frames
Format settings, GOP : M=1, N=60
Codec ID : V_MPEG4/ISO/AVC
Duration : 21 min 21 s
Bit rate : 4 999 kb/s
Width : 640 pixels
Height : 480 pixels
Display aspect ratio : 4:3
Frame rate mode : Constant
Frame rate : 29.970 (30000/1001) FPS
Color space : YUV
Chroma subsampling : 4:2:0
Bit depth : 8 bits
Scan type : Progressive
Bits/(Pixel*Frame) : 0.543
Stream size : 764 MiB (97%)
Writing library : Zencoder Video Encoding System
Default : Yes
Forced : No

Audio
ID : 2
Format : AAC
Format/Info : Advanced Audio Codec
Format profile : LC
Codec ID : A_AAC-2
Duration : 21 min 21 s
Bit rate : 128 kb/s
Channel(s) : 2 channels
Channel positions : Front: L R
Sampling rate : 48.0 kHz
Frame rate : 46.875 FPS (1024 SPF)
Compression mode : Lossy
Stream size : 19.6 MiB (2%)
Language : English
Default : Yes
Forced : No

Text
ID : 3
Format : UTF-8
Codec ID : S_TEXT/UTF8
Codec ID/Info : UTF-8 Plain Text
Duration : 20 min 52 s
Bit rate : 66 b/s
Count of elements : 411
Stream size : 10.1 KiB (0%)
Title : English (SDH)
Language : English
Default : No
Forced : No





上传的附件:
最新回复 (0)
返回