[GSCQ][血族/嗜血菌株/The Strain 第四季][全10集打包][英语英字][MKV][1080P] 2017 美国 恐怖 打包

love2001 2018-11-06 16:03 1620


◎译  名 血族 第四季/血变(港)/嗜血菌株

◎片  名 The Strain Season 4

◎年  代 2017

◎产  地 美国

◎类  别 剧情/惊悚/恐怖

◎语  言 英语

◎上映日期 2017-07-16(美国)

◎IMDb评分  9.4/10 from 8 users

◎IMDb链接  http://www.imdb.com/title/tt6101544/

◎豆瓣评分 8.7/10 from 19 users

◎豆瓣链接 https://movie.douban.com/subject/26856918/

◎集  数 10

◎导  演 J·迈尔斯·戴尔 J. Miles Dale

◎主  演 寇瑞·斯托尔 Corey Stoll

      大卫·布拉德利 David Bradley

      凯文·杜兰 Kevin Durand

      乔纳森·海德 Jonathan Hyde

      理查德·塞梅尔 Richard Sammel

      米格尔·戈麦斯 Miguel Gomez

      麦克斯·查尔斯 Max Charles

      露塔·格德米纳斯 Ruta Gedmintas

      鲁伯特·彭利-琼斯 Rupert Penry-Jones


◎简  介


  当第四季开始时,故事时间已经过去九个月。世界陷入黑暗,斯特里高伊吸血鬼控制了一切。第三季结尾的爆炸引发了一场全球核灾难,核冬天的到来令地表变得暗无天日,斯特里高伊获得解放。它们大白天也能出来活动,帮助「主人」建立起极权统治。「主人」和他的奴才们充分利用普通民众的恐惧,缔结了令人不安的联盟关系。大部分幸存人类都成了斯特里高伊的奴隶,因为他们和吸血鬼之间有且仅有一种共识:要么合作,要么死亡。世界分崩离析,社会陷入混乱,主人公团队各奔东西。每一个人都要战胜心魔和困难,通过不懈的努力,寻找最微小的反击机会……即便那意味着他们将面对九死一生的命运。另一方面,高高在上的「主人」继续实施终结人性、颠覆世界的阴谋。眼看灭顶之灾就要来临,英雄们要怎样拯救人类?


Video
ID : 1
Format : AVC
Format/Info : Advanced Video Codec
Format profile : High@L4
Format settings : CABAC / 4 Ref Frames
Format settings, CABAC : Yes
Format settings, ReFrames : 4 frames
Codec ID : V_MPEG4/ISO/AVC
Duration : 45 min 53 s
Bit rate mode : Variable
Bit rate : 10.3 Mb/s
Maximum bit rate : 15.0 Mb/s
Width : 1 920 pixels
Height : 1 080 pixels
Display aspect ratio : 16:9
Frame rate mode : Constant
Frame rate : 23.976 (24000/1001) FPS
Color space : YUV
Chroma subsampling : 4:2:0
Bit depth : 8 bits
Scan type : Progressive
Bits/(Pixel*Frame) : 0.208
Stream size : 3.31 GiB (94%)
Language : English
Default : Yes
Forced : No
Color range : Limited
Color primaries : BT.709
Transfer characteristics : BT.709
Matrix coefficients : BT.709

Audio
ID : 2
Format : E-AC-3
Format/Info : Enhanced Audio Coding 3
Codec ID : A_EAC3
Duration : 45 min 53 s
Bit rate mode : Constant
Bit rate : 640 kb/s
Channel(s) : 6 channels
Channel positions : Front: L C R, Side: L R, LFE
Sampling rate : 48.0 kHz
Frame rate : 187.500 FPS (256 SPF)
Compression mode : Lossy
Stream size : 210 MiB (6%)
Language : English
Service kind : Complete Main
Default : Yes
Forced : No

Text
ID : 3
Format : UTF-8
Codec ID : S_TEXT/UTF8
Codec ID/Info : UTF-8 Plain Text
Duration : 45 min 50 s
Bit rate : 54 b/s
Count of elements : 657
Stream size : 18.4 KiB (0%)
Language : English
Default : No
Forced : No




上传的附件:
最新回复 (0)
返回