[GSCQ][前哨/哨站/前哨基地 The Outpost 第一季][全10集打包][英语无字][MKV][1080P] 2018 美国 奇幻 打包

love2001 2018-11-06 15:57 1080

◎译  名 前哨/哨站/前哨基地

◎片  名 The Outpost

◎年  代 2018

◎产  地 美国

◎类  别 动作/犯罪/奇幻/冒险

◎语  言 英语

◎上映日期 2018-07-10(美国)

◎IMDb评分  7.9/10 from 19 users

◎IMDb链接  http://www.imdb.com/title/tt7612548/

◎集  数 10

◎片  长 40分钟

◎主  演 Jessica Green

      Jake Stormoen

      伊莫金·沃特豪斯 Imogen Waterhouse

      Anand Desai-Barochia

      安德鲁·霍华德 Andrew Howard

      Robyn Malcolm

      Charan Prabhakar

      Lindsey Stirling

      Jerome Brad Halgren

      亚当·约翰逊 Adam Johnson

      Danny Rice

      菲利普·布罗迪 Philip Brodie

      凯文·麦克纳利 Kevin McNally

      Dave Bresnahan

      Elizabeth Birkner

      William Rubio

      柯基·法尔考 Cokey Falkow

      Ben Wray

      米达宁·拉希米 Medalion Rahimi

      Sonalii Castillo

      托尔·科耐 Thor Knai

      Ric Sarabia

      Mark Blockovich

      James C. Morris

      理查德·阿什顿 Richard Ashton

      Michael Flynn

      艾米·德·毕罕 Amy De Bhrún

      Rachelle Hardy


◎简  介


  CW宣布直接预订10集新剧《前哨 The Outpost》,预定夏季档首播,美国以外地方则在Syfy播出。《前哨》是CW首部夏季档一小时新剧,过去该网只曾在夏档播出半小时新剧。

  由Jason Faller及Kynan Griffin主创的《前哨》讲述数年前Blackbloods一族住的村子遭雇佣兵摧毁及屠杀,而女主Talon(Jessica Green饰)侥幸存活后到达了文明世界边缘,立于此处的堡垒里有当年的凶手。在旅程途中她发现自己拥有神秘的超自然能力,她得学会控制它,好保护自己及打败那狂热的宗教独裁者。

  其他演员包括Jake Stormoen﹑Imogen Waterhouse﹑Andrew Howard﹑Anand Desai-Barochia及Robyn Malcolm。



Video
ID : 1
Format : AVC
Format/Info : Advanced Video Codec
Format profile : High@L4
Format settings : CABAC / 4 Ref Frames
Format settings, CABAC : Yes
Format settings, ReFrames : 4 frames
Codec ID : V_MPEG4/ISO/AVC
Duration : 42 min 26 s
Bit rate : 10.6 Mb/s
Width : 1 920 pixels
Height : 1 080 pixels
Display aspect ratio : 16:9
Frame rate mode : Constant
Frame rate : 23.976 (24000/1001) FPS
Color space : YUV
Chroma subsampling : 4:2:0
Bit depth : 8 bits
Scan type : Progressive
Bits/(Pixel*Frame) : 0.213
Stream size : 3.15 GiB (94%)
Default : Yes
Forced : No
Color range : Limited
Color primaries : BT.709
Transfer characteristics : BT.709
Matrix coefficients : BT.709

Audio
ID : 2
Format : E-AC-3
Format/Info : Enhanced Audio Coding 3
Codec ID : A_EAC3
Duration : 42 min 26 s
Bit rate mode : Constant
Bit rate : 640 kb/s
Channel(s) : 6 channels
Channel positions : Front: L C R, Side: L R, LFE
Sampling rate : 48.0 kHz
Frame rate : 187.500 FPS (256 SPF)
Compression mode : Lossy
Stream size : 194 MiB (6%)
Language : English
Service kind : Complete Main
Default : Yes
Forced : No



上传的附件:
最新回复 (0)
返回