[GSCQ][神盾局特工/Agents of SHIELD 第五季][全22集打包][英语英字][BD-MKV][1080P] 2017 美国 动作 打包

love2001 2018-11-06 15:56 1404


◎译  名 神盾局特工 第五季

◎片  名 Agents of S.H.I.E.L.D. Season 5

◎年  代 2017

◎产  地 美国

◎类  别 剧情/动作/科幻/惊悚

◎语  言 英语

◎上映日期 2017-12-01(美国)

◎IMDb评分  10/10 from 22 users

◎IMDb链接  http://www.imdb.com/title/tt6878538/

◎豆瓣评分 9.6/10 from 22 users

◎豆瓣链接 https://movie.douban.com/subject/27042712/

◎集  数 22

◎主  演 克拉克·格雷格 Clark Gregg

      温明娜 Ming-Na Wen

      汪可盈 Chloe Bennet

      伊恩·德·卡斯泰克 Iain De Caestecker

      伊丽莎白·亨斯屈奇 Elizabeth Henstridge

      亨利·西蒙斯 Henry Simmons

      尼克·布拉德 Nick Blood

      Joel Stoffer

      Jeff Ward


◎简  介


  在5×01、5×02《Orientation》中,Coulson和他的神盾局小组困在外太空一艘神秘的飞船上,恶梦才刚刚开始。Jeff Ward、Eve Harlow、Dominic Rains、Florence Faivre、Paul Duna、Kaleti Williams、Pruitt Taylor Vince、James Babson、Tunisha Hubbard、Derek Mears、Wes Armstrong和Jay Hunter客座演出。


除了Fitz之外,所有人都被绑架了,因为Fitz「不在名单上」。绑匪送他们进入巨石,将他们传送到一座太空站,他们在那里遇到某种外星怪物。Daisy、Mack、Coulson、Simmons和Yo-Yo对付外星人的时候,受伤的May被一个戴面具的神秘人抓住了。



Video
ID : 1
Format : AVC
Format/Info : Advanced Video Codec
Format profile : High@L4.1
Format settings : CABAC / 4 Ref Frames
Format settings, CABAC : Yes
Format settings, ReFrames : 4 frames
Codec ID : V_MPEG4/ISO/AVC
Duration : 43 min 53 s
Bit rate : 9 253 kb/s
Width : 1 920 pixels
Height : 1 080 pixels
Display aspect ratio : 16:9
Frame rate mode : Constant
Frame rate : 23.976 (24000/1001) FPS
Color space : YUV
Chroma subsampling : 4:2:0
Bit depth : 8 bits
Scan type : Progressive
Bits/(Pixel*Frame) : 0.186
Stream size : 2.75 GiB (84%)
Writing library : x264 core 157 r2932 303c484
Encoding settings : cabac=1 / ref=4 / deblock=1:-3:-3 / analyse=0x3:0x113 / me=umh / subme=8 / psy=1 / psy_rd=1.00:0.00 / mixed_ref=1 / me_range=32 / chroma_me=1 / trellis=2 / 8x8dct=1 / cqm=0 / deadzone=21,11 / fast_pskip=1 / chroma_qp_offset=-2 / threads=34 / lookahead_threads=5 / sliced_threads=0 / nr=0 / decimate=1 / interlaced=0 / bluray_compat=0 / constrained_intra=0 / bframes=3 / b_pyramid=2 / b_adapt=2 / b_bias=0 / direct=3 / weightb=1 / open_gop=0 / weightp=2 / keyint=240 / keyint_min=24 / scenecut=40 / intra_refresh=0 / rc_lookahead=50 / rc=2pass / mbtree=1 / bitrate=9253 / ratetol=1.0 / qcomp=0.60 / qpmin=0 / qpmax=69 / qpstep=4 / cplxblur=20.0 / qblur=0.5 / ip_ratio=1.40 / aq=3:0.80
Default : Yes
Forced : No
Statistics Tags Issue : no_variable_data 1970-01-01 00:00:00 / no_variable_data 2010-02-22 21:41:29
FromStats_BitRate : 9251794
FromStats_Duration : 00:43:34.779000000
FromStats_FrameCount : 62692
FromStats_StreamSize : 3023924686

Audio
ID : 2
Format : DTS
Format/Info : Digital Theater Systems
Codec ID : A_DTS
Duration : 43 min 53 s
Bit rate mode : Constant
Bit rate : 1 509 kb/s
Channel(s) : 6 channels
Channel positions : Front: L C R, Side: L R, LFE
Sampling rate : 48.0 kHz
Frame rate : 93.750 FPS (512 SPF)
Bit depth : 24 bits
Compression mode : Lossy
Stream size : 474 MiB (14%)
Language : English
Default : Yes
Forced : No
Statistics Tags Issue : no_variable_data 1970-01-01 00:00:00 / no_variable_data 2010-02-22 21:41:29
FromStats_BitRate : 1509000
FromStats_Duration : 00:43:53.920000000
FromStats_FrameCount : 246930
FromStats_StreamSize : 496823160

Text #1
ID : 3
Format : UTF-8
Codec ID : S_TEXT/UTF8
Codec ID/Info : UTF-8 Plain Text
Language : English
Default : No
Forced : No
Statistics Tags Issue : no_variable_data 1970-01-01 00:00:00 / no_variable_data 2010-02-22 21:41:29
FromStats_BitRate : 76
FromStats_Duration : 00:42:46.231000000
FromStats_FrameCount : 614
FromStats_StreamSize : 24521

Text #2
ID : 4
Format : UTF-8
Codec ID : S_TEXT/UTF8
Codec ID/Info : UTF-8 Plain Text
Title : SDH
Language : English
Default : No
Forced : No
Statistics Tags Issue : no_variable_data 1970-01-01 00:00:00 / no_variable_data 2010-02-22 21:41:29
FromStats_BitRate : 81
FromStats_Duration : 00:42:46.231000000
FromStats_FrameCount : 672
FromStats_StreamSize : 26124

Menu
00:00:00.000 : en:00:00:00.000
00:11:06.124 : en:00:11:06.124
00:16:08.593 : en:00:16:08.593
00:25:08.173 : en:00:25:08.173
00:34:26.564 : en:00:34:26.564
00:40:41.648 : en:00:40:41.648
00:42:55.448 : en:00:42:55.448



上传的附件:
最新回复 (0)
返回