[GSCQ][重案组女警 Scott & Bailey 第一至三季][全03季打包][英语英字][MKV][1080P] 2011 英国 罪案 打包

love2001 2018-11-04 17:11 2388

◎译  名 重案组女警/重案组女警

◎片  名 Scott & Bailey 

◎年  代 2011

◎产  地 英国

◎类  别 剧情/犯罪

◎语  言 英语

◎上映日期 2011-05-29

◎IMDb评分  7.9/10 from 4,450 users

◎IMDb链接  http://www.imdb.com/title/tt1843678/

◎豆瓣评分 7.8/10 from 233 users

◎豆瓣链接 https://movie.douban.com/subject/6521852/

◎片  长 45分钟

◎导  演 萨利·温莱特 Sally Wainwright / Diane Taylor

◎主  演 莱斯利·夏普 Lesley Sharp

      苏兰·琼斯 Suranne Jones

      阿米莉亚·布摩 Amelia Bullmore


◎简  介


  D.C. Rachel Bailey在辛迪加即曼彻斯特谋杀专案组工作9号工作。

  工作时她是个优秀的警察,但是处理工作以外的事情她就玩不转了。我们看到她时,男友Nick Savage吃饭时当众把她甩了。男友说他要离开。Rachel狠揍了Nick两下,但是看得出她确实内心伤的很深,尤其是当她怀疑Nick有外遇的时候。Bailey最好的朋友Janet Scott当时也在那里,一如既往的在第二天全力投入到工作中。


Video
ID : 1
Format : AVC
Format/Info : Advanced Video Codec
Format profile : High@L4
Format settings : CABAC / 4 Ref Frames
Format settings, CABAC : Yes
Format settings, ReFrames : 4 frames
Codec ID : V_MPEG4/ISO/AVC
Duration : 46 min 0 s
Bit rate : 10.3 Mb/s
Width : 1 920 pixels
Height : 1 080 pixels
Display aspect ratio : 16:9
Frame rate mode : Constant
Frame rate : 25.000 FPS
Color space : YUV
Chroma subsampling : 4:2:0
Bit depth : 8 bits
Scan type : Progressive
Bits/(Pixel*Frame) : 0.198
Stream size : 3.30 GiB (98%)
Default : Yes
Forced : No
Color range : Limited
Color primaries : BT.709
Transfer characteristics : BT.709
Matrix coefficients : BT.709

Audio
ID : 2
Format : E-AC-3
Format/Info : Enhanced Audio Coding 3
Codec ID : A_EAC3
Duration : 46 min 0 s
Bit rate mode : Constant
Bit rate : 224 kb/s
Channel(s) : 2 channels
Channel positions : Front: L R
Sampling rate : 48.0 kHz
Frame rate : 187.500 FPS (256 SPF)
Compression mode : Lossy
Stream size : 73.7 MiB (2%)
Language : English
Service kind : Complete Main
Default : Yes
Forced : No

Text
ID : 3
Format : UTF-8
Codec ID : S_TEXT/UTF8
Codec ID/Info : UTF-8 Plain Text
Duration : 44 min 36 s
Bit rate : 85 b/s
Count of elements : 802
Stream size : 27.9 KiB (0%)
Title : English (SDH)
Language : English
Default : No
Forced : No




上传的附件:
最新回复 (2)
返回