[GSCQ][卧底警察/卧底游戏 Played 第一季][全13集打包][英语英字][MKV][1080P] 2013 加剧 罪案 打包

love2001 2018-11-04 17:09 1512

◎译  名 卧底警察 第一季/卧底游戏

◎片  名 Played Season 1

◎年  代 2013

◎产  地 加拿大

◎类  别 剧情/犯罪

◎语  言 英语

◎上映日期 2013-10-03

◎IMDb评分  6.4/10 from 290 users

◎IMDb链接  http://www.imdb.com/title/tt2886812/

◎豆瓣评分 6.2/10 from 48 users

◎豆瓣链接 https://movie.douban.com/subject/25739127/

◎集  数 13

◎片  长 40分钟

◎主  演 丽萨·马柯丝 Lisa Marcos

      文森特·沃尔什 Vincent Walsh

      钱德拉·韦斯特 Chandra West

      Dwain Murphy

      Agam Darshi

      亚当·布切 Adam Butcher


◎简  介


  A special police unit goes undercover to infiltrate criminal organizations.


Video
ID : 1
Format : AVC
Format/Info : Advanced Video Codec
Format profile : High@L3.1
Format settings : CABAC / 5 Ref Frames
Format settings, CABAC : Yes
Format settings, ReFrames : 5 frames
Codec ID : V_MPEG4/ISO/AVC
Duration : 44 min 2 s
Bit rate mode : Variable
Bit rate : 3 955 kb/s
Maximum bit rate : 4 500 kb/s
Width : 1 280 pixels
Height : 720 pixels
Display aspect ratio : 16:9
Frame rate mode : Constant
Frame rate : 23.976 (24000/1001) FPS
Color space : YUV
Chroma subsampling : 4:2:0
Bit depth : 8 bits
Scan type : Progressive
Bits/(Pixel*Frame) : 0.179
Stream size : 1.22 GiB (86%)
Default : Yes
Forced : No
Color range : Limited
Color primaries : BT.709
Transfer characteristics : BT.709
Matrix coefficients : BT.709

Audio
ID : 2
Format : E-AC-3
Format/Info : Enhanced Audio Coding 3
Codec ID : A_EAC3
Duration : 44 min 2 s
Bit rate mode : Constant
Bit rate : 640 kb/s
Channel(s) : 6 channels
Channel positions : Front: L C R, Side: L R, LFE
Sampling rate : 48.0 kHz
Frame rate : 187.500 FPS (256 SPF)
Compression mode : Lossy
Stream size : 202 MiB (14%)
Language : English
Service kind : Complete Main
Default : Yes
Forced : No

Text #1
ID : 3
Format : UTF-8
Codec ID : S_TEXT/UTF8
Codec ID/Info : UTF-8 Plain Text
Duration : 42 min 52 s
Bit rate : 74 b/s
Count of elements : 697
Stream size : 23.4 KiB (0%)
Language : English
Default : No
Forced : No

Text #2
ID : 4
Format : UTF-8
Codec ID : S_TEXT/UTF8
Codec ID/Info : UTF-8 Plain Text
Duration : 42 min 56 s
Bit rate : 75 b/s
Count of elements : 711
Stream size : 23.6 KiB (0%)
Title : SDH
Language : English
Default : No
Forced : No



上传的附件:
最新回复 (0)
返回