[GSCQ][该死的 Damned 第一至二季][全02季打包][英语无字][MKV][1080P] 2016 英国 喜剧 打包

love2001 2018-11-04 17:07 852

◎译  名 该死的

◎片  名 Damned 

◎年  代 2016

◎产  地 英国

◎类  别 剧情/喜剧

◎语  言 英语

◎上映日期 2016-09-27

◎IMDb评分  6.9/10 from 482 users

◎IMDb链接  http://www.imdb.com/title/tt5839960/

◎片  长 24min

◎导  演 Ian Fitzgibbon

◎主  演 乔·布兰德 Jo Brand

      艾伦·戴维斯 Alan Davies

      凯文·埃尔登 Kevin Eldon

      艾斯林·贝亚 Aisling Bea


◎简  介


  Comedy set in the social services department of a local authority. Social workers Rose and Al swim against the tide of bureaucracy, deal with the absurdities of life and try to navigate their equally trying professional and personal lives.


Video
ID : 1
Format : AVC
Format/Info : Advanced Video Codec
Format profile : High@L4
Format settings : CABAC / 4 Ref Frames
Format settings, CABAC : Yes
Format settings, ReFrames : 4 frames
Codec ID : V_MPEG4/ISO/AVC
Duration : 24 min 43 s
Bit rate : 7 687 kb/s
Width : 1 920 pixels
Height : 1 080 pixels
Display aspect ratio : 16:9
Frame rate mode : Constant
Frame rate : 23.976 (24000/1001) FPS
Color space : YUV
Chroma subsampling : 4:2:0
Bit depth : 8 bits
Scan type : Progressive
Bits/(Pixel*Frame) : 0.155
Stream size : 1.33 GiB (97%)
Default : Yes
Forced : No
Color range : Limited
Color primaries : BT.709
Transfer characteristics : BT.709
Matrix coefficients : BT.709

Audio
ID : 2
Format : E-AC-3
Format/Info : Enhanced Audio Coding 3
Codec ID : A_EAC3
Duration : 24 min 43 s
Bit rate mode : Constant
Bit rate : 224 kb/s
Channel(s) : 2 channels
Channel positions : Front: L R
Sampling rate : 48.0 kHz
Frame rate : 187.500 FPS (256 SPF)
Compression mode : Lossy
Stream size : 39.6 MiB (3%)
Language : English
Service kind : Complete Main
Default : Yes
Forced : No



上传的附件:
最新回复 (0)
返回