[GSCQ][世纪之案 Crimes of the Century 第一季][全08集打包][英语无字][MKV][1080P] 2013 美国 纪录 打包

love2001 2018-11-04 17:06 1236

◎译  名 世纪之案

◎片  名 Crimes of the Century

◎年  代 2013

◎产  地 美国

◎类  别 历史/纪录片

◎语  言 英语

◎IMDb评分  7.4/10 from 153 users

◎IMDb链接  http://www.imdb.com/title/tt3042566/

◎集  数 8


◎简  介


  "Crimes of the Century" focuses on major news events that were shocking at the time and have since had far reaching repercussions. Among the stories the series will cover are the D.C. sniper attacks, John Lennon assassination, Andrea Yates trial, Ronald Reagan Assassination attempt, Oklahoma City Bombing, Amanda Knox trial, the Waco, Texas siege, and the Unabomber.


Video
ID : 1
Format : AVC
Format/Info : Advanced Video Codec
Format profile : High@L4
Format settings : CABAC / 4 Ref Frames
Format settings, CABAC : Yes
Format settings, ReFrames : 4 frames
Codec ID : V_MPEG4/ISO/AVC
Duration : 42 min 59 s
Bit rate : 7 409 kb/s
Width : 1 920 pixels
Height : 1 080 pixels
Display aspect ratio : 16:9
Frame rate mode : Constant
Frame rate : 25.000 FPS
Color space : YUV
Chroma subsampling : 4:2:0
Bit depth : 8 bits
Scan type : Progressive
Bits/(Pixel*Frame) : 0.143
Stream size : 2.22 GiB (97%)
Default : Yes
Forced : No
Color range : Limited
Color primaries : BT.709
Transfer characteristics : BT.709
Matrix coefficients : BT.709

Audio
ID : 2
Format : E-AC-3
Format/Info : Enhanced Audio Coding 3
Codec ID : A_EAC3
Duration : 42 min 59 s
Bit rate mode : Constant
Bit rate : 224 kb/s
Channel(s) : 2 channels
Channel positions : Front: L R
Sampling rate : 48.0 kHz
Frame rate : 187.500 FPS (256 SPF)
Compression mode : Lossy
Stream size : 68.9 MiB (3%)
Language : English
Service kind : Complete Main
Default : Yes
Forced : No



上传的附件:
最新回复 (0)
返回