[GSCQ][黑人耶稣 Black Jesus 第一至二季][全02季打包][英语无字][MKV][1080P] 2014 美国 喜剧 打包

love2001 2018-11-04 17:05 1296

◎译  名 黑人耶稣

◎片  名 Black Jesus

◎年  代 2014

◎产  地 美国

◎类  别 喜剧

◎语  言 英语

◎上映日期 2014-08-07(美国)

◎IMDb评分  6.8/10 from 2,740 users

◎IMDb链接  http://www.imdb.com/title/tt3589872/

◎集  数 10

◎片  长 20


◎简  介


  Adult Swim宣布预定有剧本真人喜剧节目《Black Jesus》,故事描述耶稣基督(Gerald “Slink” Johnson)居住在现代都市里。他要在社区里传播「爱」与「善良」——一小群忠于他的「受压迫者」将帮助他完成「任务」。针对美国人过去半年热议的话题「耶稣究竟是白人还是黑人」,Adult Swim此次特意选择了一个「黑人耶稣」。Charlie Murphy、Corey Holco[展开全文]
Adult Swim宣布预定有剧本真人喜剧节目《Black Jesus》,故事描述耶稣基督(Gerald “Slink” Johnson)居住在现代都市里。他要在社区里传播「爱」与「善良」——一小群忠于他的「受压迫者」将帮助他完成「任务」。针对美国人过去半年热议的话题「耶稣究竟是白人还是黑人」,Adult Swim此次特意选择了一个「黑人耶稣」。Charlie Murphy、Corey Holcomb和John Witherspoon参与演出。


Video
ID : 1
Format : AVC
Format/Info : Advanced Video Codec
Format profile : High@L4
Format settings : CABAC / 4 Ref Frames
Format settings, CABAC : Yes
Format settings, ReFrames : 4 frames
Codec ID : V_MPEG4/ISO/AVC
Duration : 20 min 7 s
Bit rate mode : Variable
Bit rate : 11.9 Mb/s
Maximum bit rate : 15.0 Mb/s
Width : 1 920 pixels
Height : 1 080 pixels
Display aspect ratio : 16:9
Frame rate mode : Constant
Frame rate : 23.976 (24000/1001) FPS
Color space : YUV
Chroma subsampling : 4:2:0
Bit depth : 8 bits
Scan type : Progressive
Bits/(Pixel*Frame) : 0.240
Stream size : 1.68 GiB (95%)
Default : Yes
Forced : No
Color range : Limited
Color primaries : BT.709
Transfer characteristics : BT.709
Matrix coefficients : BT.709

Audio
ID : 2
Format : E-AC-3
Format/Info : Enhanced Audio Coding 3
Codec ID : A_EAC3
Duration : 20 min 7 s
Bit rate mode : Constant
Bit rate : 640 kb/s
Channel(s) : 6 channels
Channel positions : Front: L C R, Side: L R, LFE
Sampling rate : 48.0 kHz
Frame rate : 187.500 FPS (256 SPF)
Compression mode : Lossy
Stream size : 92.1 MiB (5%)
Language : English
Service kind : Complete Main
Default : Yes
Forced : No


上传的附件:
最新回复 (0)
返回