[GSCQ][火炬木小组 Torchwood 第一至四季][全04季打包][英语无字][BD-MKV][1080P] 更早 英国 科幻 打包

love2001 2018-11-03 14:51 1104

◎译  名 火炬木小组

◎片  名 Torchwood 

◎年  代 2006

◎产  地 英国

◎类  别 剧情/科幻

◎语  言 英语

◎上映日期 2006-10-22(英国)

◎IMDb评分  7.8/10 from 35,920 users

◎IMDb链接  http://www.imdb.com/title/tt0485301/

◎片  长 50分钟

◎导  演 Andy Goddard / Ashley Way

◎主  演 加雷思·大卫-劳埃德 Gareth David-Lloyd

      约翰·巴罗曼 John Barrowman


◎简  介


  10月22日,BBC开播一部新科幻电视剧《Torchwood》,这是英国长寿科幻电视剧大王《Doctor Who》(神秘博士/异世奇人)的衍生剧集。Torchwood这个名词其实是Doctor Who由颠倒字母顺序而构成的字。Torchwood在《Doctor Who 2005》里出现过好几次,例如《Doctor Who 2005》2x02里提到了1879年的维多利亚女王遇到了博士和Rose,也见识到了外星生物的存在, 最后她流放了博士和Rose的同时决定开始建立一个像"黑衣人"一样的专门研究并对付外星人的组织-火炬木研究院(the Torchwood Institute);而2x00里最后摧毁外星人飞船的武器就是火炬木研究院的研究成果之一;2x12则介绍了现代的火炬木研究院。。。

  《Torchwood》主要讲述了一群调查者的冒险故事,他们利用外星科技解决犯罪案件,不仅是人类的,也包括外星人的……故事的主角都是"火炬木研究院"的成员。1879年,英国发生地外文明入侵事件之后维多利亚女王决定成立这个机构。加的夫海湾地底深处,不为人知的"火炬木研究院"悄悄运转着。这里储藏着大量外星物件,还有一些从"裂缝"中出现的外星人。这个裂缝虽然肉眼不能察觉,但却是现实空间维度的一个巨大裂口。一个世纪以来,"火炬木研究院"一直是地球抵御外星人入侵的第一道防线,而"火炬木小组"的成员们则替人类固守着任何可能发生的威胁。斗转星移,新一代"火炬木小组"的成员又成长起来。除了每天探索未知的东西之外,他们仍然是普通人,仍然有普通人每天都要遇到的生活烦恼。

  现在"火炬木小组"的队长是拥有谜一般背景的年轻人Jack Harkness,他身手敏捷、外表性感但是很负责任、很有紧迫感。他知道不管他们发现了什么东西,对人类的生存来说都是无价的。他相信人类的弱点已经暴露,那个威胁人类生存的日子已经不远了……

  IANTO JONES是一个温文有礼、办事高效、沉着冷静的调查员,但是隐藏在外表之下的是不易让人察觉的痛苦和黑暗。OWEN HARPER则傲慢无理、头脑简单,做事不讲原则,但他却偏偏是个天才,他能随时洞悉真相并证明自己的一切相关理论, 他同时是小组的医师。

  女主角不多不少也是三位: GWEN COOPER热情而果敢,她本是个外来者,初次来到Torchwood纯粹是出于对真相的好奇,结果将自己困在这个陌生但是却令人兴奋的世界里。SUZIE COSTELLO是Torchwood小组的副队长,是个硬件专家。她负责观察和研究Torchwood所获得的每一件外星设备。TOSHIKO SATO是一个聪明绝顶的计算机专家,同时也是一个尖利刻薄的女人。她把自己的技术应用到各个方面,几乎寸步不离。但是对于自己工作之余的私人生活,却相当保密。(以上介绍转自飞翔科幻网和天涯小筑,转载请注明出处)


Video
ID : 1
Format : AVC
Format/Info : Advanced Video Codec
Format profile : High@L4.1
Format settings : CABAC / 4 Ref Frames
Format settings, CABAC : Yes
Format settings, ReFrames : 4 frames
Muxing mode : Header stripping
Codec ID : V_MPEG4/ISO/AVC
Duration : 58 min 43 s
Bit rate : 8 172 kb/s
Width : 1 920 pixels
Height : 1 080 pixels
Display aspect ratio : 16:9
Frame rate mode : Constant
Frame rate : 25.000 FPS
Color space : YUV
Chroma subsampling : 4:2:0
Bit depth : 8 bits
Scan type : Progressive
Bits/(Pixel*Frame) : 0.158
Stream size : 3.27 GiB (82%)
Writing library : x264 core 124 r2197 69a0443
Encoding settings : cabac=1 / ref=4 / deblock=1:0:0 / analyse=0x3:0x133 / me=umh / subme=8 / psy=1 / psy_rd=1.00:0.00 / mixed_ref=1 / me_range=16 / chroma_me=1 / trellis=1 / 8x8dct=1 / cqm=0 / deadzone=21,11 / fast_pskip=0 / chroma_qp_offset=-2 / threads=18 / sliced_threads=0 / nr=0 / decimate=1 / interlaced=0 / bluray_compat=0 / constrained_intra=0 / bframes=3 / b_pyramid=2 / b_adapt=1 / b_bias=0 / direct=1 / weightb=1 / open_gop=0 / weightp=2 / keyint=250 / keyint_min=25 / scenecut=40 / intra_refresh=0 / rc_lookahead=40 / rc=2pass / mbtree=1 / bitrate=8172 / ratetol=1.0 / qcomp=0.60 / qpmin=0 / qpmax=69 / qpstep=4 / cplxblur=20.0 / qblur=0.5 / ip_ratio=1.40 / aq=1:1.00
Language : English
Default : Yes
Forced : No

Audio
ID : 2
Format : DTS
Format/Info : Digital Theater Systems
Muxing mode : Header stripping
Codec ID : A_DTS
Duration : 58 min 43 s
Bit rate mode : Constant
Bit rate : 1 509 kb/s
Channel(s) : 6 channels
Channel positions : Front: L C R, Side: L R, LFE
Sampling rate : 48.0 kHz
Frame rate : 93.750 FPS (512 SPF)
Bit depth : 16 bits
Compression mode : Lossy
Stream size : 634 MiB (16%)
Default : Yes
Forced : No




上传的附件:
最新回复 (0)
返回