[GSCQ][新飞越比佛利/90210 第一季][全24集打包][英语无字][BD-MKV][1080P] 2008 美国 喜剧 打包

love2001 2018-11-03 14:49 780

◎译  名 新飞越比佛利 第一季/新飞跃比佛利

◎片  名 90210 Season 1

◎年  代 2008

◎产  地 美国

◎类  别 喜剧/剧情/爱情

◎语  言 英语

◎上映日期 2008-09-02

◎IMDb评分  6.1/10 from 39,454 users

◎IMDb链接  http://www.imdb.com/title/tt1225901/

◎豆瓣评分 6.7/10 from 3,927 users

◎豆瓣链接 https://movie.douban.com/subject/3070507/

◎集  数 24

◎片  长 45分钟

◎导  演 莎拉·皮亚·安德森 Sarah Pia Anderson / Paul Lazarus

◎主  演 施蕾·葛莱姆斯 Shenae Grimes

      崔斯坦·瓦尔德斯 Tristan Wilds

      达斯汀·米利甘 Dustin Milligan

      安娜琳·麦考德 AnnaLynne McCord


◎简  介


  新学期开始前,一辆私家车载着Wilson一家从堪萨斯的小镇去往奢华的比佛利山。Annie(施蕾·葛莱姆斯 Shenae Grimes 饰)和自幼被收养的黑人哥哥Dixon(特里斯坦·瓦尔德斯 Tristan Wilds 饰)对新家与新学校都有着憧憬又有点担心,此次父亲Harry(罗伯·艾斯特斯 Rob Estes 饰)一来是为了照顾昔日好莱坞明星、行事语言夸张的母亲Tabitha、二来是担任子女们周一就要上课的学校新校长。他对子女的严格管教与母亲对孙儿及时行乐享受青春的影响恰成对比。

  新学期正式开始,Annie和Dixon和其他新生一样,因为父亲的身份特殊,遭遇同学的嘲笑和故意的捉弄,但阳光的Annie用自己的善良和笑容慢慢赢得了朋友的真心,而Dixon则为了自己的球队梦想而努力。在洛杉矶,在比佛利,这群青春新鲜人自由肆意地活出自己的生活和风格。


Video
ID : 1
Format : AVC
Format/Info : Advanced Video Codec
Format profile : High@L4.1
Format settings : CABAC / 4 Ref Frames
Format settings, CABAC : Yes
Format settings, ReFrames : 4 frames
Codec ID : V_MPEG4/ISO/AVC
Duration : 1 h 21 min
Bit rate : 9 089 kb/s
Width : 1 920 pixels
Height : 1 080 pixels
Display aspect ratio : 16:9
Frame rate mode : Constant
Frame rate : 23.976 (24000/1001) FPS
Color space : YUV
Chroma subsampling : 4:2:0
Bit depth : 8 bits
Scan type : Progressive
Bits/(Pixel*Frame) : 0.183
Stream size : 5.20 GiB (95%)
Writing library : x264 core 155 r2901 7d0ff22
Encoding settings : cabac=1 / ref=4 / deblock=1:-3:-3 / analyse=0x3:0x113 / me=umh / subme=8 / psy=1 / psy_rd=1.00:0.15 / mixed_ref=1 / me_range=24 / chroma_me=1 / trellis=1 / 8x8dct=1 / cqm=0 / deadzone=21,11 / fast_pskip=1 / chroma_qp_offset=-3 / threads=34 / lookahead_threads=5 / sliced_threads=0 / nr=0 / decimate=1 / interlaced=0 / bluray_compat=0 / constrained_intra=0 / bframes=3 / b_pyramid=2 / b_adapt=1 / b_bias=0 / direct=3 / weightb=1 / open_gop=0 / weightp=2 / keyint=240 / keyint_min=24 / scenecut=40 / intra_refresh=0 / rc_lookahead=50 / rc=2pass / mbtree=1 / bitrate=9089 / ratetol=1.0 / qcomp=0.60 / qpmin=0 / qpmax=69 / qpstep=4 / cplxblur=20.0 / qblur=0.5 / ip_ratio=1.40 / aq=1:0.80
Default : Yes
Forced : No

Audio
ID : 2
Format : AC-3
Format/Info : Audio Coding 3
Codec ID : A_AC3
Duration : 1 h 21 min
Bit rate mode : Constant
Bit rate : 448 kb/s
Channel(s) : 6 channels
Channel positions : Front: L C R, Side: L R, LFE
Sampling rate : 48.0 kHz
Frame rate : 31.250 FPS (1536 SPF)
Bit depth : 16 bits
Compression mode : Lossy
Stream size : 263 MiB (5%)
Language : English
Service kind : Complete Main
Default : Yes
Forced : No

Menu
00:00:00.000 : en:00:00:00.000
00:10:24.624 : en:00:10:24.624
00:22:48.826 : en:00:22:48.826
00:30:51.683 : en:00:30:51.683
00:34:12.050 : en:00:34:12.050
00:43:37.448 : en:00:43:37.448
00:53:27.913 : en:00:53:27.913
00:56:51.867 : en:00:56:51.867
01:04:31.117 : en:01:04:31.117
01:07:57.073 : en:01:07:57.073
01:14:33.010 : en:01:14:33.010
01:21:18.123 : en:01:21:18.123



上传的附件:
最新回复 (0)
返回