[GSCQ][芝加哥烈焰/风城烈焰/Chicago Fire 第六季][全23集打包][英语英字][BD-MKV][1080P] 2017 美国 动作 打包

love2001 2018-11-03 14:48 792

◎译  名 芝加哥烈焰 第六季/风城烈火

◎片  名 Chicago Fire Season 6

◎年  代 2017

◎产  地 美国

◎类  别 剧情/动作

◎语  言 英语

◎上映日期 2017-09-28(美国)

◎IMDb评分  8.7/10 from 209 users

◎IMDb链接  http://www.imdb.com/title/tt6884430/

◎豆瓣评分 8.2/10 from 171 users

◎豆瓣链接 https://movie.douban.com/subject/27041205/

◎集  数 23

◎片  长 43分钟

◎导  演 Reza Tabrizi

◎主  演 杰西·斯宾塞 Jesse Spencer

      泰勒·金尼 Taylor Kinney

      莫妮卡·雷蒙德 Monica Raymund

      卡拉·吉尔默 Kara Killmer

      大卫·艾根伯格 David Eigenberg

      尤里·沙尔达罗夫 Yuri Sardarov

      乔·米诺索 Joe Minoso

      克里斯蒂安·斯托特 Christian Stolte

      伊默恩·沃克 Eamonn Walker

      艾洛斯·慕福特 Eloise Mumford

      梅丽莎·庞西奥 Melissa Ponzio

      丹尼尔·扎卡帕 Daniel Zacapa

      马奎斯·罗德里格斯 Marquis Rodriguez

      兰迪·弗拉格尔 Randy Flagler

      Miranda Rae Mayo


◎简  介


  在6×01《It Wasn’t Enough》中,多数消防员仍然困在起火的工厂仓库里,Boden主任为了营救自己的手下,在最后一刻做出一个冒险的决定。Dawson仍然要面对父亲(Daniel Zacapa),怎料他自己有一套新计划。Brett的童年好友Hope Jacquinot(Eloise Mumford)到访芝加哥,引起了消防队内某人的关注。Kidd与房东发生矛盾。与此同时,某高中发生一起火灾,这件事与Boden息息相关(因为这是他妻子Donna工作的学校)。Randy Flagler、Melissa Ponzio客座演出。


Video
ID : 1
Format : AVC
Format/Info : Advanced Video Codec
Format profile : High@L4.1
Format settings : CABAC / 5 Ref Frames
Format settings, CABAC : Yes
Format settings, ReFrames : 5 frames
Codec ID : V_MPEG4/ISO/AVC
Duration : 40 min 54 s
Bit rate : 6 130 kb/s
Width : 1 280 pixels
Height : 720 pixels
Display aspect ratio : 16:9
Frame rate mode : Constant
Frame rate : 23.976 (24000/1001) FPS
Color space : YUV
Chroma subsampling : 4:2:0
Bit depth : 8 bits
Scan type : Progressive
Bits/(Pixel*Frame) : 0.277
Stream size : 1.75 GiB (80%)
Writing library : x264 core 157 r2932 303c484
Encoding settings : cabac=1 / ref=5 / deblock=1:-3:-3 / analyse=0x3:0x133 / me=umh / subme=8 / psy=1 / psy_rd=1.00:0.00 / mixed_ref=1 / me_range=16 / chroma_me=1 / trellis=1 / 8x8dct=1 / cqm=0 / deadzone=21,11 / fast_pskip=0 / chroma_qp_offset=-2 / threads=22 / lookahead_threads=3 / sliced_threads=0 / nr=0 / decimate=1 / interlaced=0 / bluray_compat=0 / constrained_intra=0 / bframes=3 / b_pyramid=2 / b_adapt=1 / b_bias=0 / direct=3 / weightb=1 / open_gop=0 / weightp=2 / keyint=250 / keyint_min=23 / scenecut=40 / intra_refresh=0 / rc_lookahead=50 / rc=2pass / mbtree=1 / bitrate=6130 / ratetol=1.0 / qcomp=0.60 / qpmin=0 / qpmax=69 / qpstep=4 / cplxblur=20.0 / qblur=0.5 / vbv_maxrate=62500 / vbv_bufsize=78125 / nal_hrd=none / filler=0 / ip_ratio=1.40 / aq=1:1.00
Default : Yes
Forced : No

Audio
ID : 2
Format : DTS
Format/Info : Digital Theater Systems
Codec ID : A_DTS
Duration : 40 min 54 s
Bit rate mode : Constant
Bit rate : 1 509 kb/s
Channel(s) : 6 channels
Channel positions : Front: L C R, Side: L R, LFE
Sampling rate : 48.0 kHz
Frame rate : 93.750 FPS (512 SPF)
Bit depth : 24 bits
Compression mode : Lossy
Stream size : 441 MiB (20%)
Language : English
Default : Yes
Forced : No

Menu
00:00:00.000 : en:00:00:00.000
00:03:50.605 : en:00:03:50.605
00:17:23.876 : en:00:17:23.876
00:31:35.894 : en:00:31:35.894




上传的附件:
最新回复 (0)
返回