[GSCQ][足坛密探/足球密探 Matador 第一季][全13集打包][英语英字][MKV][1080P] 2014 美国 罪案 打包

love2001 2018-11-03 14:46 1212

◎译  名 足坛密探 第一季/足球密探/斗牛士

◎片  名 Matador Season 1

◎年  代 2014

◎产  地 美国

◎类  别 剧情/科幻/犯罪/惊悚/运动

◎语  言 英语/西班牙语

◎上映日期 2014-07-15

◎IMDb评分  5.8/10 from 936 users

◎IMDb链接  http://www.imdb.com/title/tt3652662/

◎豆瓣评分 5.4/10 from 141 users

◎豆瓣链接 https://movie.douban.com/subject/25900800/

◎集  数 13

◎片  长 40分钟

◎导  演 尼克·科普斯 Nick Copus / 罗伯特·罗德里格兹 Robert Rodriguez

◎主  演 Tanc Sade

      路易斯·小泽·张简 Louis Ozawa Changchien

      加布里埃尔·鲁纳 Gabriel Luna

      埃莲娜·萨汀 Elena Satine

      Julien Marlon Samani

      妮基·韦兰 Nicky Whelan

      尼尔·霍普金斯 Neil Hopkins

      阿尔弗雷德·莫里纳 Alfred Molina


◎简  介


  该剧由黄金编剧搭档Roberto Orci和Alex Kurtzman打造,El Rey电视网的创始人Robert Rodriguez亲自导演首集。该剧将在三月底开机拍摄,在世界杯足球赛期间播出。这是一部描述足球明星暗中充当中情局间谍的动作剧。据称这是真人真事,但主人公在现实生活中是个棒球运动员(El Rey主要面向说西班牙语的拉美裔观众,它们更喜欢足球)。主人公Antonio “Matador” Bravo(Gabriel Luna)表面上是深受大众喜爱的足球明星,事实上他有着另外一个身份:他是一个不为人知的中情局绝密部门的特工,正在执行一项深度卧底任务。由于他在体育界声名显赫,这让他有机会接触腐败和邪恶圈子里的实权人物,但他也面临巨大的危险。

  身材惹火的性感泳装模特Nicky Whelan将扮演女主角Annie。Neil Hopkins扮演Annie的搭档Noah,虽然人很聪明,但在社交方面有些笨拙。Alfred Molina扮演美国足球大联盟球队「洛杉矶狂暴队」(LA Riot)的老板Andres Galan,无论这支球队还是Galan本人都是美国足球业界的佼佼者,他同时还在商界和政界有着举足轻重的地位。他是一个全球秘密精英组织的成员,这群有钱有势的头面人物操纵着世界政治经济格局,左右着人类历史的发展,他们对全世界的影响力超出所有人的想象。Galan并不知道,这个组织中已经出现了一个内奸——正在「洛杉矶狂暴队」效力的主力球员Antonio Bravo实际上是中情局派来的卧底密探,目的就是要摧毁他和他的组织。但是随着Antonio和Galan的关系越来越亲密,他们的命运出现了很多意想不到的变数,而他们的命运又将决定世界的命运。现实生活中并没有「洛杉矶狂暴队」,只有「洛杉矶银河队」。Jonny Cruz扮演Antonio的弟弟Ricky Bravo,目前正在监狱里服刑。Yvette Monreal扮演Adres Galan的独生女Senna Galan,长得很可爱,但总是惹麻烦。


Video
ID : 1
Format : HEVC
Format/Info : High Efficiency Video Coding
Format profile : Main@L4@Main
Codec ID : V_MPEGH/ISO/HEVC
Duration : 48 min 43 s
Bit rate : 8 294 kb/s
Width : 1 920 pixels
Height : 1 080 pixels
Display aspect ratio : 16:9
Frame rate mode : Constant
Frame rate : 23.976 (24000/1001) FPS
Standard : NTSC
Color space : YUV
Chroma subsampling : 4:2:0
Bit depth : 8 bits
Bits/(Pixel*Frame) : 0.167
Stream size : 2.82 GiB (93%)
Default : Yes
Forced : No
Color range : Limited
Color primaries : BT.709
Transfer characteristics : BT.709
Matrix coefficients : BT.709

Audio
ID : 2
Format : E-AC-3
Format/Info : Enhanced Audio Coding 3
Codec ID : A_EAC3
Duration : 48 min 43 s
Bit rate mode : Constant
Bit rate : 640 kb/s
Channel(s) : 6 channels
Channel positions : Front: L C R, Side: L R, LFE
Sampling rate : 48.0 kHz
Frame rate : 187.500 FPS (256 SPF)
Compression mode : Lossy
Stream size : 223 MiB (7%)
Language : English
Service kind : Complete Main
Default : Yes
Forced : No

Text
ID : 3
Format : UTF-8
Codec ID : S_TEXT/UTF8
Codec ID/Info : UTF-8 Plain Text
Duration : 47 min 35 s
Bit rate : 68 b/s
Count of elements : 793
Stream size : 24.0 KiB (0%)
Title : English (SDH)
Language : English
Default : No
Forced : No



上传的附件:
最新回复 (0)
返回