[GSCQ][尖峰时刻 Rush Hour 第一季][全13集打包][英语英字][MKV][1080P] 2013 美国 动作 打包

love2001 2018-11-03 14:45 1380

◎译  名 尖峰时刻

◎片  名 Rush Hour

◎年  代 2016

◎产  地 美国

◎类  别 喜剧/动作

◎语  言 英语

◎上映日期 2016-03-31(美国)

◎IMDb评分  5.8/10 from 3,215 users

◎IMDb链接  http://www.imdb.com/title/tt4085584/

◎豆瓣评分 4.8/10 from 190 users

◎豆瓣链接 https://movie.douban.com/subject/26087713/

◎集  数 13

◎片  长 40分钟

◎导  演 乔·德特杜巴 Jon Turteltaub

◎主  演 亨利·伊安·库斯克 Henry Ian Cusick

      埃美·加西亚 Aimee Garcia

      约翰·芬 Jon Foo

      佩吉·肯尼迪 Page Kennedy

      邢思杰 Alfred Hsing

      李晨浩 Leon Lee

      范立美 Jessika Van

      Kirk Fox

      Stephen Hibbert

      安德鲁·T·李 Andrew T. Lee


◎简  介


  改编自1998年成龙主演的同名电影,讲述一名严谨死板的香港警察来到洛杉矶办案,不得不与一个自高自大且认为自己不需要搭档的洛杉矶警察合作。



Video
ID : 1
Format : HEVC
Format/Info : High Efficiency Video Coding
Format profile : Main@L4@Main
Codec ID : V_MPEGH/ISO/HEVC
Duration : 42 min 50 s
Bit rate : 8 845 kb/s
Width : 1 920 pixels
Height : 1 080 pixels
Display aspect ratio : 16:9
Frame rate mode : Constant
Frame rate : 23.976 (24000/1001) FPS
Standard : NTSC
Color space : YUV
Chroma subsampling : 4:2:0
Bit depth : 8 bits
Bits/(Pixel*Frame) : 0.178
Stream size : 2.65 GiB (93%)
Default : Yes
Forced : No
Color range : Limited
Color primaries : BT.709
Transfer characteristics : BT.709
Matrix coefficients : BT.709

Audio
ID : 2
Format : E-AC-3
Format/Info : Enhanced Audio Coding 3
Codec ID : A_EAC3
Duration : 42 min 50 s
Bit rate mode : Constant
Bit rate : 640 kb/s
Channel(s) : 6 channels
Channel positions : Front: L C R, Side: L R, LFE
Sampling rate : 48.0 kHz
Frame rate : 187.500 FPS (256 SPF)
Compression mode : Lossy
Stream size : 196 MiB (7%)
Language : English
Service kind : Complete Main
Default : Yes
Forced : No

Text
ID : 3
Format : UTF-8
Codec ID : S_TEXT/UTF8
Codec ID/Info : UTF-8 Plain Text
Duration : 42 min 23 s
Bit rate : 92 b/s
Count of elements : 834
Stream size : 28.7 KiB (0%)
Title : English (SDH)
Language : English
Default : No
Forced : No



上传的附件:
最新回复 (0)
返回