[GSCQ][詹姆斯·卡梅隆的科幻故事 第一季][全06集打包][英语中字][MKV][1080P] 2018 美国 纪录 打包

love2001 2018-11-01 15:12 3444

◎译  名 詹姆斯·卡梅隆的科幻故事/詹姆斯·卡梅隆聊科幻小说的故事

◎片  名 James Cameron's Story of Science Fiction

◎年  代 2018

◎产  地 美国

◎类  别 纪录片

◎语  言 英语

◎上映日期 2018-04-30(美国)

◎IMDb评分  8.2/10 from 393 users

◎IMDb链接  http://www.imdb.com/title/tt8344332/

◎豆瓣评分 9.2/10 from 5,379 users

◎豆瓣链接 https://movie.douban.com/subject/26955451/

◎集  数 6

◎片  长 42分钟

◎主  演 詹姆斯·卡梅隆 James Cameron

      雷德利·斯科特 Ridley Scott

      史蒂文·斯皮尔伯格 Steven Spielberg

      彼得·卡帕尔迪 Peter Capaldi

      乔治·卢卡斯 George Lucas

      吉尔莫·德尔·托罗 Guillermo del Toro

      爱德华·诺麦尔 Edward Neumeier

      克里斯托弗·诺兰 Christopher Nolan

      基努·里维斯 Keanu Reeves

      保罗·范霍文 Paul Verhoeven

      鲍勃·巴拉班 Bob Balaban

      吕克·贝松 Luc Besson

      玛德琳·布鲁尔 Madeline Brewer

      马克斯·布鲁克斯 Max Brooks

      凯尔·杜拉 Keir Dullea

      约翰·戴克斯特拉 John Dykstra

      加里斯·爱德华斯 Gareth Edwards

      乌比·戈德堡 Whoopi Goldberg

      杰夫·高布伦 Jeff Goldblum

      阿齐瓦·高斯曼 Akiva Goldsman

      约瑟夫·高登-莱维特 Joseph Gordon-Levitt

      詹姆斯·古恩 James Gunn

      乔什·哈切森 Josh Hutcherson

      罗伯特·柯克曼 Robert Kirkman

      弗朗西斯·劳伦斯 Francis Lawrence

      肖恩·列侬 Sean Lennon

      约翰·利思戈 John Lithgow

      克里斯托弗·洛伊德 Christopher Lloyd

      布鲁斯·米勒 Bruce Miller

      罗纳德·D·摩尔 Ronald D. Moore

      格里高利·尼克特洛 Gregory Nicotero

      盖瑞·罗斯 Gary Ross

      维罗尼卡·罗斯 Veronica Roth

      佐伊·索尔达娜 Zoe Saldana

      阿诺·施瓦辛格 Arnold Schwarzenegger

      威尔·史密斯 Will Smith

      特丽·塔歇尔 Terri Tatchell

      西格妮·韦弗 Sigourney Weaver

      特德·姜 Ted Chiang

      刘宇昆 Ken Liu

      米拉·乔沃维奇 Milla Jovovich


◎简  介


  AMC宣布立项科幻小说历史纪录剧集《詹姆斯·卡梅隆的科幻小说轶事》(暂译)。剧中詹姆斯·卡梅隆将通过分析科幻小说从起初被人们崇拜到如今轰动影视界的成功演变,深度探究人类与科幻小说之间的历史关系及现实意义。詹姆斯·卡梅隆将担任执行制片人。该剧将于2018年上线AMC,共6集。

Video
ID : 1
Format : AVC
Format/Info : Advanced Video Codec
Format profile : High@L4
Format settings : CABAC / 4 Ref Frames
Format settings, CABAC : Yes
Format settings, ReFrames : 4 frames
Codec ID : V_MPEG4/ISO/AVC
Duration : 42 min 24 s
Bit rate : 9 338 kb/s
Width : 1 920 pixels
Height : 1 080 pixels
Display aspect ratio : 16:9
Frame rate mode : Constant
Frame rate : 23.976 (24000/1001) FPS
Color space : YUV
Chroma subsampling : 4:2:0
Bit depth : 8 bits
Scan type : Progressive
Bits/(Pixel*Frame) : 0.188
Stream size : 2.77 GiB (98%)
Default : Yes
Forced : No
Color range : Limited
Color primaries : BT.709
Transfer characteristics : BT.709
Matrix coefficients : BT.709

Audio
ID : 2
Format : E-AC-3
Format/Info : Enhanced Audio Coding 3
Codec ID : A_EAC3
Duration : 42 min 24 s
Bit rate mode : Constant
Bit rate : 224 kb/s
Channel(s) : 2 channels
Channel positions : Front: L R
Sampling rate : 48.0 kHz
Frame rate : 187.500 FPS (256 SPF)
Compression mode : Lossy
Stream size : 67.9 MiB (2%)
Language : English
Service kind : Complete Main
Default : Yes
Forced : No

Text
ID : 3
Format : UTF-8
Codec ID : S_TEXT/UTF8
Codec ID/Info : UTF-8 Plain Text
Duration : 41 min 42 s
Bit rate : 119 b/s
Count of elements : 972
Stream size : 36.5 KiB (0%)
Title : SDH
Language : English
Default : No
Forced : No



上传的附件:
最新回复 (2)
  • 2018-11-03 00:10
    3
    卡神
  • jjldf 2018-11-01 20:25
    2
    谢谢分享!
返回