[GSCQ][瑞典混蛋侦探社/Swedish Dicks 第一至二季][全02季打包][英语英字][MKV][1080P] 2017 美国 罪案 打包

love2001 2018-10-31 15:28 1116

◎译  名 瑞典混蛋侦探社/瑞典侦探

◎片  名 Swedish Dicks

◎年  代 2017

◎产  地 美国/瑞典

◎类  别 喜剧/动作/犯罪

◎语  言 英语/瑞典语

◎上映日期 2017-09-02(美国)

◎导  演 Jon Holmberg / Peter Settman

◎主  演 彼得·斯特曼 Peter Stormare

      基努·里维斯 Keanu Reeves

      奇希·劳尔兹 Traci Lords

      卡尔洛·罗塔 Carlo Rota

      莉莉·米罗基尼克 Lili Mirojnick

      乔什·多尔蒂 Josh Daugherty

      布兰登·伊顿 Brando Eaton

      卡罗琳·赫尼塞 Carolyn Hennesy

      泰勒·尼科斯 Taylor Nichols

      布鲁斯·诺兹克 Bruce Nozick

      南森·巴纳特 Nathan Barnatt

      Johan Glans

      Vivian Bang

      Henrik Rutgersson

      Laurie Searle


◎简  介


  有线频道Pop TV预订基努·里维斯参演的喜剧《瑞典混蛋侦探社》,该剧可看作是里维斯的小荧屏首秀,主演彼得·斯特曼([疾速特攻])、约翰·格兰斯。剧集讲述一个前特技演员和一个瑞典DJ在洛杉矶开了一家私人侦探所,接手一系列古怪案件,引发一串啼笑皆非的故事。该剧共十集,有望今秋开播。



Video
ID : 1
Format : AVC
Format/Info : Advanced Video Codec
Format profile : High@L4
Format settings : CABAC / 4 Ref Frames
Format settings, CABAC : Yes
Format settings, ReFrames : 4 frames
Codec ID : V_MPEG4/ISO/AVC
Duration : 25 min 45 s
Bit rate mode : Variable
Bit rate : 10.9 Mb/s
Maximum bit rate : 15.0 Mb/s
Width : 1 920 pixels
Height : 1 080 pixels
Display aspect ratio : 16:9
Frame rate mode : Constant
Frame rate : 23.976 (24000/1001) FPS
Color space : YUV
Chroma subsampling : 4:2:0
Bit depth : 8 bits
Scan type : Progressive
Bits/(Pixel*Frame) : 0.219
Stream size : 1.96 GiB (94%)
Default : Yes
Forced : No
Color range : Limited
Color primaries : BT.709
Transfer characteristics : BT.709
Matrix coefficients : BT.709

Audio
ID : 2
Format : E-AC-3
Format/Info : Enhanced Audio Coding 3
Codec ID : A_EAC3
Duration : 25 min 45 s
Bit rate mode : Constant
Bit rate : 640 kb/s
Channel(s) : 6 channels
Channel positions : Front: L C R, Side: L R, LFE
Sampling rate : 48.0 kHz
Frame rate : 187.500 FPS (256 SPF)
Compression mode : Lossy
Stream size : 118 MiB (6%)
Language : English
Service kind : Complete Main
Default : Yes
Forced : No

Text
ID : 3
Format : UTF-8
Codec ID : S_TEXT/UTF8
Codec ID/Info : UTF-8 Plain Text
Duration : 24 min 54 s
Bit rate : 89 b/s
Count of elements : 575
Stream size : 16.4 KiB (0%)
Title : English (SDH)
Language : English
Default : No
Forced : No



上传的附件:
最新回复 (0)
返回