[GSCQ][喜当爷/爷爷万岁/Grandfathered 第一季][全22集打包][英语英字][MKV][1080P] 2015 美国 喜剧 打包

love2001 2018-10-31 15:23 840

◎译  名 喜当爷/爷爷万岁/我要当爷爷了/今天开始做爷爷

◎片  名 Grandfathered

◎年  代 2015

◎产  地 美国

◎类  别 喜剧

◎语  言 英语

◎上映日期 2015-09-29(美国)

◎IMDb评分  7.0/10 from 5,471 users

◎IMDb链接  http://www.imdb.com/title/tt4465368/

◎豆瓣评分 7.4/10 from 590 users

◎豆瓣链接 https://movie.douban.com/subject/26342208/

◎集  数 22

◎片  长 20分钟

◎导  演 Chris Koch

◎主  演 帕姬·布鲁斯特 Paget Brewster

      约翰·斯塔莫斯 John Stamos

      克里斯蒂娜·米利安 Christina Milian

      乔希·佩克 Josh Peck

      查斯蒂·巴勒斯特罗斯 Chasty Ballesteros

      拉维·帕特尔 Ravi Patel


◎简  介


  该剧由《Full House》的主演John Stamos和《犯罪心理 Criminal Minds》的Paget Brewster主演。在这部单镜头喜剧里,John饰演了主人公Jimmy,一位单身已久的钻石王老五,但当他发现自己是一位父亲--还是一位外公,他的生活发生了翻天覆地的变化。


Video
ID : 1
Format : AVC
Format/Info : Advanced Video Codec
Format profile : High@L4
Format settings : CABAC / 4 Ref Frames
Format settings, CABAC : Yes
Format settings, ReFrames : 4 frames
Codec ID : V_MPEG4/ISO/AVC
Duration : 21 min 35 s
Bit rate : 5 255 kb/s
Width : 1 920 pixels
Height : 1 080 pixels
Display aspect ratio : 16:9
Frame rate mode : Constant
Frame rate : 23.976 (24000/1001) FPS
Color space : YUV
Chroma subsampling : 4:2:0
Bit depth : 8 bits
Scan type : Progressive
Bits/(Pixel*Frame) : 0.106
Stream size : 811 MiB (93%)
Language : English
Default : Yes
Forced : No
Color range : Limited
Color primaries : BT.709
Transfer characteristics : BT.709
Matrix coefficients : BT.709

Audio
ID : 2
Format : AC-3
Format/Info : Audio Coding 3
Codec ID : A_AC3
Duration : 21 min 35 s
Bit rate mode : Constant
Bit rate : 384 kb/s
Channel(s) : 6 channels
Channel positions : Front: L C R, Side: L R, LFE
Sampling rate : 48.0 kHz
Frame rate : 31.250 FPS (1536 SPF)
Bit depth : 16 bits
Compression mode : Lossy
Stream size : 59.3 MiB (7%)
Language : English
Service kind : Complete Main
Default : Yes
Forced : No

Text
ID : 3
Format : UTF-8
Codec ID : S_TEXT/UTF8
Codec ID/Info : UTF-8 Plain Text
Duration : 21 min 25 s
Bit rate : 119 b/s
Count of elements : 580
Stream size : 18.8 KiB (0%)
Language : English
Default : Yes
Forced : No



上传的附件:
最新回复 (0)
返回