[GSCQ]巨齿鲨 The.Meg.2018.SUBBED.720p.WEBRip.DD5.1.x264-SHITBOX 3.32GB 2018 欧美 科幻

solomovie 2018-10-29 15:26 2904

The.Meg.2018.SUBBED.720p.WEBRip.DD5.1.x264-SHITBOX

◎译  名 巨齿鲨/极悍巨鲨(港)/麦格

◎片  名 The Meg

◎年  代 2018

◎产  地 美国/中国大陆/香港

◎类  别 动作/科幻/惊悚

◎语  言 英语/汉语普通话/泰语

◎上映日期 2018-08-10(美国)/2018-08-10(中国大陆)

◎IMDb评分  6.0/10 from 48,228 users

◎IMDb链接  http://www.imdb.com/title/tt4779682/

◎豆瓣评分 6.0/10 from 80,333 users

◎豆瓣链接 https://movie.douban.com/subject/26426194/

◎片  长 115分钟(中国大陆)/113分钟

◎导  演 乔·德特杜巴 Jon Turteltaub

◎主  演 杰森·斯坦森 Jason Statham

      李冰冰 Bingbing Li

      雷恩·威尔森 Rainn Wilson

      鲁比·罗丝 Ruby Rose

      赵文瑄 Winston Chao

      佩吉·肯尼迪 Page Kennedy

      杰西卡·麦克娜美 Jessica McNamee

      奥拉维尔·达里·奥拉夫松 Ólafur Darri Ólafsson

      罗伯特·泰勒 Robert Taylor

      蔡书雅 Sophia Cai

      丘增 Masi Oka

      克利夫·柯蒂斯 Cliff Curtis

      安佑森 Yoson An

      罗伯·基帕-威廉姆斯 Rob Kipa-Williams

      维他亚·潘斯林加姆 Vithaya Pansringarm

      安得烈·格兰杰 Andrew Grainger

      蒂姆·王 Tim Wong

      史蒂文·A·戴维斯 Steven A. Davis

      托万达·马尼莫 Tawanda Manyimo

      买红妹 Hongmei Mai


◎简  介


  一项由中国主导的国际科研项目,正在马里亚纳海沟深处进行时,遭遇未知生物攻击,科研人员被困海底。前美国海军陆战队深海潜水专家乔纳斯·泰勒受命前往营救,再度遭遇数年前曾经在深海给自己留下终身难以磨灭记忆的史前生物巨齿鲨。乔纳斯联手科研项目中的中国女科学家张苏茵成功营救了被困人员,但营救行动却意外造成了巨齿鲨逃离深海。当史前巨兽重返浅海,人类将为自己对大自然的贪婪付出惨重的代价......


Video
ID : 1
Format : AVC
Format/Info : Advanced Video Codec
Format profile : High@L4.1
Format settings : CABAC / 4 Ref Frames
Format settings, CABAC : Yes
Format settings, ReFrames : 4 frames
Codec ID : V_MPEG4/ISO/AVC
Duration : 1 h 54 min
Bit rate : 3 600 kb/s
Width : 1 280 pixels
Height : 536 pixels
Display aspect ratio : 2.40:1
Frame rate mode : Constant
Frame rate : 23.976 (24000/1001) FPS
Color space : YUV
Chroma subsampling : 4:2:0
Bit depth : 8 bits
Scan type : Progressive
Bits/(Pixel*Frame) : 0.219
Stream size : 2.81 GiB (85%)
Title : The.Meg.2018.SUBBED.720p.WEBRip.DD5.1.x264-SHITBOX
Writing library : x264 core 148 r2795M aaa9aa8
Encoding settings : cabac=1 / ref=4 / deblock=1:0:0 / analyse=0x3:0x113 / me=umh / subme=9 / psy=1 / psy_rd=1.00:0.00 / mixed_ref=1 / me_range=16 / chroma_me=1 / trellis=2 / 8x8dct=1 / cqm=0 / deadzone=21,11 / fast_pskip=1 / chroma_qp_offset=-2 / threads=40 / lookahead_threads=3 / sliced_threads=0 / nr=0 / decimate=1 / interlaced=0 / bluray_compat=0 / constrained_intra=0 / bframes=3 / b_pyramid=2 / b_adapt=2 / b_bias=0 / direct=3 / weightb=1 / open_gop=0 / weightp=2 / keyint=250 / keyint_min=23 / scenecut=40 / intra_refresh=0 / rc_lookahead=50 / rc=abr / mbtree=1 / bitrate=3600 / ratetol=1.0 / qcomp=0.60 / qpmin=0 / qpmax=69 / qpstep=4 / ip_ratio=1.40 / aq=1:1.00
Language : English
Default : Yes
Forced : No

Audio
ID : 2
Format : AC-3
Format/Info : Audio Coding 3
Codec ID : A_AC3
Duration : 1 h 54 min
Bit rate mode : Constant
Bit rate : 640 kb/s
Channel(s) : 6 channels
Channel positions : Front: L C R, Side: L R, LFE
Sampling rate : 48.0 kHz
Frame rate : 31.250 FPS (1536 SPF)
Bit depth : 16 bits
Compression mode : Lossy
Stream size : 525 MiB (15%)
Title : The.Meg.2018.SUBBED.720p.WEBRip.DD5.1.x264-SHITBOX
Language : English
Service kind : Complete Main
Default : Yes
Forced : No



上传的附件:
最新回复 (2)
  • gengenoo 2018-10-30 07:56
    3
    这个没事了,可以看看
  • pkl 2018-10-30 02:28
    2
    ddd
返回