[GSCQ]绝命电视 Await.Further.Instructions.2018.1080p.WEB-DL.DD5.1.H264-FGT 3.15GB 2018 欧美 科幻

aostterm 2018-10-29 15:22 1896

Await.Further.Instructions.2018.1080p.WEB-DL.DD5.1.H264-FGT

◎译  名 绝命电视

◎片  名 Await Further Instructions

◎年  代 2018

◎产  地 英国

◎类  别 科幻/悬疑/恐怖

◎语  言 英语

◎IMDb评分  5.9/10 from 101 users

◎IMDb链接  http://www.imdb.com/title/tt4971408/

◎导  演 Johnny Kevorkian

◎主  演 大卫·布拉德利 David Bradley

      阿比盖尔·克鲁特登 Abigail Cruttenden

      Holly Weston

      萨姆·吉斯 Sam Gittins

      Grant Masters

      Neerja Naik

      Kris Saddler


◎简  介


  It's Christmas Day and the Milgram family wake to find a mysterious black substance surrounding their house. Something monumental is clearly happening right outsidetheir door| but what exactly - an industrial accident| a terrorist attack| nuclear war? Descending into terrified arguments| they turn on the television| desperatefor any information. On screen a message glows ominously: 'Stay Indoors and Await Further Instructions'. As the television exerts an ever more sinister grip| theirparanoia escalates into bloody carnage.



Video
ID : 1
Format : AVC
Format/Info : Advanced Video Codec
Format profile : High@L4
Format settings : CABAC / 5 Ref Frames
Format settings, CABAC : Yes
Format settings, ReFrames : 5 frames
Codec ID : V_MPEG4/ISO/AVC
Duration : 1 h 30 min
Bit rate : 4 580 kb/s
Width : 1 920 pixels
Height : 800 pixels
Display aspect ratio : 2.40:1
Frame rate mode : Constant
Frame rate : 23.976 (23976/1000) FPS
Color space : YUV
Chroma subsampling : 4:2:0
Bit depth : 8 bits
Scan type : Progressive
Bits/(Pixel*Frame) : 0.124
Stream size : 2.90 GiB (92%)
Title : Await.Further.Instructions.2018.1080p.WEB-DL.DD5.1.H264-FGT
Language : English
Default : Yes
Forced : No
Color range : Limited
Color primaries : BT.709
Transfer characteristics : BT.709
Matrix coefficients : BT.709

Audio
ID : 2
Format : AC-3
Format/Info : Audio Coding 3
Codec ID : A_AC3
Duration : 1 h 30 min
Bit rate mode : Constant
Bit rate : 384 kb/s
Channel(s) : 6 channels
Channel positions : Front: L C R, Side: L R, LFE
Sampling rate : 48.0 kHz
Frame rate : 31.250 FPS (1536 SPF)
Bit depth : 16 bits
Compression mode : Lossy
Stream size : 249 MiB (8%)
Title : Await.Further.Instructions.2018.1080p.WEB-DL.DD5.1.H264-FGT
Language : English
Service kind : Complete Main
Default : Yes
Forced : No

Menu
00:00:00.000 : en:1
00:12:38.758 : en:2
00:22:12.665 : en:3
00:37:33.502 : en:4
00:48:01.213 : en:5
00:56:52.619 : en:6
01:06:56.055 : en:7
01:16:16.990 : en:8
01:27:57.273 : en:9



上传的附件:
最新回复 (0)
返回