[GSCQ]丛林大反攻/打猎季节 Open.Season.2006.1080p.BluRay.x264-SUNSPOT 7.95GB 更早 欧美 动画

62581126 2018-10-28 16:43 2268

Open.Season.2006.1080p.BluRay.x264-SUNSPOT

◎译  名 丛林大反攻/打猎季节(台)/森林反恐队(港)/狩猎季/狩猎季节

◎片  名 Open Season

◎年  代 2006

◎产  地 美国

◎类  别 动画/冒险/喜剧/家庭

◎语  言 英语

◎上映日期 2006-09-29(美国)/2006-09-29(中国大陆)

◎IMDb评分  6.1/10 from 75,393 users

◎IMDb链接  http://www.imdb.com/title/tt0400717/

◎豆瓣评分 7.1/10 from 21,778 users

◎豆瓣链接 https://movie.douban.com/subject/1428178/

◎片  长 83分钟

◎导  演 罗杰·阿勒斯 Roger Allers / Jill Culton / 安东尼·斯塔基 Anthony Stacchi

◎主  演 马丁·劳伦斯 Martin Lawrence

      阿什顿·库彻 Ashton Kutcher

      乔恩·费儒 Jon Favreau


◎简  介


  棕熊布哥是个幸运儿,他被收养者宠得一塌糊涂,生活安逸舒适。然而现在他却被放归森林,对大自然的艰苦极不习惯的布哥一心想回城,黑尾鹿艾略特的出现却改变了他的计划。艾略特被猎人撞断了一只角,绑在车中运往镇里。布哥犹豫再三,终于救走了艾略特。这个决定让布哥再不能顺利的回到以前的生活。

  艾略特拜恩人布哥为兄弟,跟着布哥一起前行,并且引诱他来到野丛林好好“享受”。布哥来到丛林,才发现这里的条件太恶劣了,根本不像城里舒服。而且,他们还犯了一个错误,让动物们陷入狩猎区当中,重重危险面前,布哥的野性被逐渐唤醒,他和动物们组成兵团抗击敌人,上演一场轰烈的家园保卫战。


◎获奖情况


  第34届动画安妮奖  (2007)

  最佳动画长片(提名)

  最佳分镜(提名) 克里斯·皮尔恩

  最佳艺术指导(提名) Andrew Edward Harkness / Michael Humphries

  最佳角色设计(提名) Carter Goodrich

  最佳动画效果(提名) David Stephens


Video
ID : 1
Format : AVC
Format/Info : Advanced Video Codec
Format profile : High@L5.1
Format settings : CABAC / 5 Ref Frames
Format settings, CABAC : Yes
Format settings, ReFrames : 5 frames
Codec ID : V_MPEG4/ISO/AVC
Duration : 1 h 26 min
Bit rate : 12.7 Mb/s
Width : 1 920 pixels
Height : 1 040 pixels
Display aspect ratio : 1.85:1
Frame rate mode : Constant
Frame rate : 23.976 (24000/1001) FPS
Color space : YUV
Chroma subsampling : 4:2:0
Bit depth : 8 bits
Scan type : Progressive
Bits/(Pixel*Frame) : 0.266
Stream size : 7.52 GiB (95%)
Title : h264 1920x1040
Writing library : x264 core 60
Encoding settings : cabac=1 / ref=5 / deblock=1:0:0 / analyse=0x3:0x133 / me=umh / subme=7 / psy_rd=1.000000 / brdo=1 / mixed_ref=1 / me_range=24 / chroma_me=1 / trellis=2 / 8x8dct=1 / cqm=0 / deadzone=21,11 / chroma_qp_offset=0 / threads=12 / nr=0 / decimate=1 / mbaff=0 / bframes=12 / b_pyramid=1 / b_adapt=1 / b_bias=0 / direct=1 / wpredb=1 / bime=1 / keyint=239 / keyint_min=25 / scenecut=40(pre) / rc=2pass / bitrate=12739 / ratetol=1.0 / rceq=\'blurCplx^(1-qComp)\' / qcomp=1.00 / qpmin=10 / qpmax=51 / qpstep=4 / cplxblur=20.0 / qblur=0.5 / ip_ratio=1.40 / pb_ratio=1.30 / aq=2:1.00
Language : English
Default : Yes
Forced : No

Audio
ID : 2
Format : AC-3
Format/Info : Audio Coding 3
Codec ID : A_AC3
Duration : 1 h 26 min
Bit rate mode : Constant
Bit rate : 448 kb/s
Channel(s) : 6 channels
Channel positions : Front: L C R, Side: L R, LFE
Sampling rate : 48.0 kHz
Frame rate : 31.250 FPS (1536 SPF)
Bit depth : 16 bits
Compression mode : Lossy
Stream size : 276 MiB (3%)
Title : AC3 5.1 448kbit
Language : English
Service kind : Complete Main
Default : Yes
Forced : No



上传的附件:
最新回复 (1)
  • jjldf 2018-10-28 21:13
    2
    谢谢分享!
返回