[GSCQ]Shangri-La.Near.Extinction.2018.1080p.AMZN.WEBRip.AAC2.0.x264-NTG 5.7GB 2018 欧美 科幻

62581126 2018-10-27 15:29 2316

Shangri-La.Near.Extinction.2018.1080p.AMZN.WEBRip.AAC2.0.x264-NTG

◎译  名 

◎片  名 Shangri-La: Near Extinction

◎年  代 2018

◎产  地 美国

◎类  别 科幻

◎语  言 英语

◎导  演 Nick Wauters

◎主  演 艾瑞克·兹曼达 Eric Szmanda

      梅西·麦克利 Mercy Malick

      Aaron Groben

      Angel Garet

      Joe Souza


◎简  介


  Mankind is nearly extinct in this post-apocalyptic creature thriller. Most humans died from a deadly plague and the ice age they manufactured to eradicate it. A mannamed Vargas leads a group of survivors on a quest to reach Shangri-La| the last safe haven on Earth. However| they must fight through the cold| a mutant cult and apack of deadly creatures to get there.


Video
ID : 1
Format : AVC
Format/Info : Advanced Video Codec
Format profile : High@L4
Format settings : CABAC / 4 Ref Frames
Format settings, CABAC : Yes
Format settings, ReFrames : 4 frames
Format settings, GOP : M=4, N=48
Codec ID : V_MPEG4/ISO/AVC
Duration : 1 h 23 min
Bit rate mode : Constant
Bit rate : 10 000 kb/s
Width : 1 920 pixels
Height : 1 080 pixels
Display aspect ratio : 16:9
Frame rate mode : Constant
Frame rate : 23.976 (24000/1001) FPS
Color space : YUV
Chroma subsampling : 4:2:0
Bit depth : 8 bits
Scan type : Progressive
Bits/(Pixel*Frame) : 0.201
Stream size : 5.62 GiB (99%)
Language : English
Default : Yes
Forced : No
Color range : Limited
Color primaries : BT.709
Transfer characteristics : BT.709
Matrix coefficients : BT.709

Audio
ID : 2
Format : AAC
Format/Info : Advanced Audio Codec
Format profile : LC
Codec ID : A_AAC-2
Duration : 1 h 23 min
Bit rate : 125 kb/s
Channel(s) : 2 channels
Channel positions : Front: L R
Sampling rate : 48.0 kHz
Frame rate : 46.875 FPS (1024 SPF)
Compression mode : Lossy
Stream size : 75.3 MiB (1%)
Language : English
Default : Yes
Forced : No

Text
ID : 3
Format : UTF-8
Codec ID : S_TEXT/UTF8
Codec ID/Info : UTF-8 Plain Text
Duration : 1 h 18 min
Bit rate : 76 b/s
Count of elements : 1438
Stream size : 43.7 KiB (0%)
Title : SDH
Language : English
Default : No
Forced : No



上传的附件:
最新回复 (1)
  • jjldf 2018-10-27 18:11
    2
    谢谢分享!
返回