[GSCQ][列奥纳多·达·芬奇 Leonardo 第一至二季][全02季打包][英语无字][MKV][720P] 2011 美国 剧情 打包

love2001 2018-10-27 15:24 2148

◎译  名 列奥纳多·达·芬奇/列奥纳多

◎片  名 Leonardo

◎年  代 2011

◎产  地 英国

◎类  别 剧情/儿童

◎语  言 英语

◎上映日期 2011-04-11(英国)

◎IMDb评分  6.5/10 from 193 users

◎IMDb链接  http://www.imdb.com/title/tt1745588/

◎豆瓣评分 7.7/10 from 162 users

◎豆瓣链接 https://movie.douban.com/subject/24744375/

◎片  长 29分钟

◎导  演 卢克·沃森 Luke Watson

◎主  演 Colin Ryan

      Flora Spencer-Longhurst

      Akemnji Ndifernyan

      乔纳森·贝利 Jonathan Bailey


◎简  介


  神秘组织强迫小伙去偷里奥的笔记本,小伙化名托马索进到画坊拿到了笔记,可他临时改变主意不想出卖里奥。笔记本被彪形大汉抢走,里奥与好友前去调查时,托马索暴露女孩身份。托马索说出自己叫丽萨,为了学画画才来到佛罗伦萨,里奥与好友洛伦佐、迈克答应为丽萨保密身份。洛伦佐告诉父亲皮埃罗城里有奇怪组织,殊不知他的父亲就是抢走笔记本的主谋。


Video
ID : 1
Format : AVC
Format/Info : Advanced Video Codec
Format profile : High@L3.1
Format settings : CABAC / 4 Ref Frames
Format settings, CABAC : Yes
Format settings, ReFrames : 4 frames
Codec ID : V_MPEG4/ISO/AVC
Duration : 28 min 32 s
Bit rate mode : Constant
Bit rate : 2 700 kb/s
Width : 1 280 pixels
Height : 720 pixels
Display aspect ratio : 16:9
Frame rate mode : Constant
Frame rate : 25.000 FPS
Color space : YUV
Chroma subsampling : 4:2:0
Bit depth : 8 bits
Scan type : Progressive
Bits/(Pixel*Frame) : 0.117
Stream size : 550 MiB (89%)
Default : Yes
Forced : No
Color range : Limited
Color primaries : BT.709
Transfer characteristics : BT.709
Matrix coefficients : BT.709

Audio
ID : 2
Format : AC-3
Format/Info : Audio Coding 3
Codec ID : A_AC3
Duration : 28 min 27 s
Bit rate mode : Constant
Bit rate : 320 kb/s
Channel(s) : 2 channels
Channel positions : Front: L R
Sampling rate : 48.0 kHz
Frame rate : 31.250 FPS (1536 SPF)
Bit depth : 16 bits
Compression mode : Lossy
Stream size : 65.1 MiB (11%)
Service kind : Complete Main
Default : Yes
Forced : No



上传的附件:
最新回复 (0)
返回