[GSCQ]心碎度蜜月/我为蜜月狂 The.Heartbreak.Kid.2007.1080p.BluRay.x264-CiRCLE 7.95GB 2007 欧美 喜剧

DarkMeridian 2018-10-26 18:07 2520

The.Heartbreak.Kid.2007.1080p.BluRay.x264-CiRCLE

◎译  名 心碎度蜜月/心碎的孩子/绝望如孩童/我为蜜月狂/七日之痒/真的想飞你

◎片  名 The Heartbreak Kid

◎年  代 2007

◎产  地 美国

◎类  别 喜剧/爱情

◎语  言 英语/西班牙语

◎上映日期 2007-10-05

◎IMDb评分  5.8/10 from 78,481 users

◎IMDb链接  http://www.imdb.com/title/tt0408839/

◎豆瓣评分 6.1/10 from 4,557 users

◎豆瓣链接 https://movie.douban.com/subject/1994877/

◎片  长 116 分钟

◎导  演 博比·法雷利 Bobby Farrelly / 彼得·法雷利 Peter Farrelly

◎主  演 本·斯蒂勒 Ben Stiller

      米歇尔·莫纳汉 Michelle Monaghan

      伊娃·朗格利亚 Eva Longoria Parker

      杰瑞·斯蒂勒 Jerry Stiller

      玛琳·阿克曼 Malin Akerman


◎简  介


  单身汉埃迪(本•斯蒂勒 饰)起初并没有结婚的想法,但是参加完一个又一个朋友的婚礼之后,开始感到空前的孤独,于是尝试着和活泼迷人的莱拉(马琳•阿克曼 饰)约会。仅一周之后,埃迪就被自己的父亲(杰瑞•斯蒂勒 饰)和死党马克(罗布•考得瑞 饰)催促着向对方求婚。埃迪觉得这可能是他最后的机会,所以放手一博,没想到莱拉欣然应允。

  仓促的婚礼后,两人前往墨西哥度蜜月。一路上,莱拉行为古怪,和埃迪想象中的女孩子形象大相径庭,看似甜蜜的旅程,简直就像一场噩梦。然而到了蜜月地,因为莱拉的皮肤晒伤,埃迪有机会认识了和自己性情相投的米兰达(米歇尔•莫娜汉 饰),面对迟来的真爱,他将何去何从?


Video
ID : 1
Format : AVC
Format/Info : Advanced Video Codec
Format profile : High@L4.1
Format settings : CABAC / 5 Ref Frames
Format settings, CABAC : Yes
Format settings, ReFrames : 5 frames
Codec ID : V_MPEG4/ISO/AVC
Duration : 1 h 55 min
Bit rate : 9 204 kb/s
Width : 1 920 pixels
Height : 800 pixels
Display aspect ratio : 2.40:1
Frame rate mode : Constant
Frame rate : 23.976 FPS
Color space : YUV
Chroma subsampling : 4:2:0
Bit depth : 8 bits
Scan type : Progressive
Bits/(Pixel*Frame) : 0.250
Stream size : 7.27 GiB (92%)
Writing library : x264 core 65 r1074M b6bb3d4
Encoding settings : cabac=1 / ref=5 / deblock=1:0:0 / analyse=0x3:0x113 / me=umh / subme=7 / psy_rd=1.0:0.0 / mixed_ref=1 / me_range=16 / chroma_me=1 / trellis=1 / 8x8dct=1 / cqm=0 / deadzone=21,11 / chroma_qp_offset=-2 / threads=6 / nr=0 / decimate=1 / mbaff=0 / bframes=3 / b_pyramid=1 / b_adapt=2 / b_bias=0 / direct=1 / wpredb=1 / keyint=250 / keyint_min=25 / scenecut=40(pre) / rc=2pass / bitrate=9204 / ratetol=1.0 / qcomp=0.60 / qpmin=10 / qpmax=51 / qpstep=4 / cplxblur=20.0 / qblur=0.5 / ip_ratio=1.40 / pb_ratio=1.30 / aq=1:1.00
Default : Yes
Forced : No

Audio
ID : 3
Format : AC-3
Format/Info : Audio Coding 3
Codec ID : A_AC3
Duration : 1 h 55 min
Bit rate mode : Constant
Bit rate : 640 kb/s
Channel(s) : 6 channels
Channel positions : Front: L C R, Side: L R, LFE
Sampling rate : 48.0 kHz
Frame rate : 31.250 FPS (1536 SPF)
Bit depth : 16 bits
Compression mode : Lossy
Stream size : 529 MiB (6%)
Service kind : Complete Main
Default : Yes
Forced : No

Text
ID : 2
Format : UTF-8
Codec ID : S_TEXT/UTF8
Codec ID/Info : UTF-8 Plain Text
Default : Yes
Forced : No



上传的附件:
最新回复 (1)
返回