[GSCQ][爱你到死/信守婚约 Til Death 第一至四季][全04季打包][英语英字][MKV][1080P] 更早 美国 喜剧 打包

love2001 2018-10-26 17:28 1296

◎译  名 爱你到死/信守婚约/至死不渝

◎片  名 'Til Death

◎年  代 2006

◎产  地 美国

◎类  别 喜剧

◎语  言 英语

◎上映日期 2006-09-07

◎IMDb评分  6.5/10 from 5,548 users

◎IMDb链接  http://www.imdb.com/title/tt0759475/

◎豆瓣评分 7.8/10 from 194 users

◎豆瓣链接 https://movie.douban.com/subject/1875296/

◎片  长 30分钟

◎导  演 Ted Wass

◎主  演 布拉德·加内特 Brad Garrett

      乔莉·费舍尔 Joely Fisher

      艾迪·凯伊·托马斯 Eddie Kaye Thomas

      凯特·福斯特 Kat Foster


◎简  介


  为什么在婚礼上新人总要说“无论是好是坏、富裕或贫穷、疾病还是健康都彼此相爱、 珍惜,直到死亡才能将我们分开。”的誓言呢?那是因为生活有时会不错,但是大部分时候生活都是糟糕的。从某个角度上来说,你们两会同时生病,也可能会缺钱,而且从此再也不能和其他人同床共枕了……因为你们将一起生活至死。难道婚姻是快乐的吗?中年的EDDIE和JOY STARK已经结婚8743天,他们吵架后留下的伤痕可以作为见证;而他们的邻居STEPH和JEFF WOODCOCK才新婚12天,所以两人还是那么卿卿我我、激情四射。当老夫老妻遇上新婚燕尔时,哪种才是婚姻的真谛所在:是一起享受罗曼蒂克,还是在对方需要动手术时开车送他去医院呢?Eddie是一名愤世而现实的高中历史老师,有些自以为是。他的婚姻观是建立在丰富的历史知识之上:所有的争吵(战争)都是为了家中的地位(权力)、私人的空间(领地)和各自的财产(资源),而且女人最喜欢来扫兴。作为婚姻上的沙场老手,他常常“教育”年轻的邻居、也是Eddie学校副校长的Jeff。不过骨子里Eddie还是深爱着性急风趣、同时也深爱着自己的妻子Joy的。


Video
ID : 1
Format : AVC
Format/Info : Advanced Video Codec
Format profile : High@L4
Format settings : CABAC / 4 Ref Frames
Format settings, CABAC : Yes
Format settings, ReFrames : 4 frames
Codec ID : V_MPEG4/ISO/AVC
Duration : 22 min 40 s
Bit rate mode : Variable
Bit rate : 14.2 Mb/s
Maximum bit rate : 15.0 Mb/s
Width : 1 920 pixels
Height : 1 080 pixels
Display aspect ratio : 16:9
Frame rate mode : Constant
Frame rate : 23.976 (24000/1001) FPS
Color space : YUV
Chroma subsampling : 4:2:0
Bit depth : 8 bits
Scan type : Progressive
Bits/(Pixel*Frame) : 0.286
Stream size : 2.26 GiB (96%)
Language : English
Default : Yes
Forced : No
Color range : Limited
Color primaries : BT.709
Transfer characteristics : BT.709
Matrix coefficients : BT.709

Audio
ID : 2
Format : E-AC-3
Format/Info : Enhanced Audio Coding 3
Codec ID : A_EAC3
Duration : 22 min 40 s
Bit rate mode : Constant
Bit rate : 640 kb/s
Channel(s) : 6 channels
Channel positions : Front: L C R, Side: L R, LFE
Sampling rate : 48.0 kHz
Frame rate : 187.500 FPS (256 SPF)
Compression mode : Lossy
Stream size : 104 MiB (4%)
Language : English
Service kind : Complete Main
Default : Yes
Forced : No

Text
ID : 3
Format : UTF-8
Codec ID : S_TEXT/UTF8
Codec ID/Info : UTF-8 Plain Text
Duration : 22 min 34 s
Bit rate : 92 b/s
Count of elements : 477
Stream size : 15.3 KiB (0%)
Title : SDH
Language : English
Default : No
Forced : No



上传的附件:
最新回复 (1)
  • jjldf 2018-10-26 20:19
    2
    谢谢分享!
返回