[GSCQ]龙之心/龙心国王/魔幻屠龙 DragonHeart.1996.1080p.BluRay.x264-MUxHD 7.09GB 更早 欧美 奇幻

62581126 2018-10-26 16:56 1824

DragonHeart.1996.1080p.BluRay.x264-MUxHD

◎译  名 龙之心/龙心国王/魔幻屠龙/魔龙传奇/屠龙记

◎片  名 DragonHeart

◎年  代 1996

◎产  地 美国

◎类  别 动作/冒险/剧情/奇幻

◎语  言 英语

◎上映日期 1996-05-31(美国)

◎IMDb评分  6.4/10 from 84,615 users

◎IMDb链接  http://www.imdb.com/title/tt0116136/

◎豆瓣评分 6.8/10 from 1,860 users

◎豆瓣链接 https://movie.douban.com/subject/1293417/

◎片  长 103 分钟

◎导  演 罗伯·科恩 Rob Cohen

◎主  演 丹尼斯·奎德 Dennis Quaid

      大卫·休里斯 David Thewlis

      皮特·波斯尔思韦特 Pete Postlethwaite

      戴安· 梅尔 Dina Meyer

      詹森·艾萨克 Jason Isaacs

      布莱恩·汤普森 Brian Thompson

      李·奥克斯 Lee Oakes


◎简  介


  一次意外中,王子爱侬(大卫·休里斯 David Thewlis 饰)的心脏受到了致命伤害,为了挽救王子的性命,一条龙献出了自己的半颗心脏。起死回生后的爱侬性情大变,凶恶又残暴,身为王子的剑术老师,伯温(丹尼斯·奎德 Dennis Quaid 饰)认为造成这一改变的罪魁祸首是王子的那一半龙心,为了帮助王子找回心性,爱侬决定不惜一切代价,找到拥有另一半心脏的龙。

  一转眼十年过去,死在伯温手下的龙不计其数,最终,他遇见了一直在寻找的宿敌,一人一龙之间却产生了深厚的友谊。渐渐的,伯温发现,爱侬的残暴和龙心无关,系他的本性,得知了这一真相的伯温同旅途中认识的卡拉(戴安· 梅尔 Dina Meyer 饰)一起,加入到了推翻爱侬暴政的起义当中去。


◎获奖情况


  第69届奥斯卡金像奖  (1997)

  最佳视觉效果(提名) Scott Squires / 菲尔 蒂贝特 / James Straus / 基特·韦斯特


Video
ID : 1
Format : AVC
Format/Info : Advanced Video Codec
Format profile : High@L4.1
Format settings, CABAC : Yes
Format settings, ReFrames : 5 frames
Codec ID : V_MPEG4/ISO/AVC
Duration : 1 h 42 min
Bit rate : 8 365 kb/s
Width : 1 920 pixels
Height : 816 pixels
Display aspect ratio : 2.35:1
Frame rate mode : Constant
Frame rate : 23.976 (24000/1001) FPS
Color space : YUV
Chroma subsampling : 4:2:0
Bit depth : 8 bits
Scan type : Progressive
Bits/(Pixel*Frame) : 0.223
Stream size : 5.87 GiB (83%)
Writing library : x264 core 138 r2358 9e941d1
Encoding settings : cabac=1 / ref=5 / deblock=1:0:0 / analyse=0x3:0x133 / me=umh / subme=7 / psy=1 / psy_rd=1.00:0.00 / mixed_ref=1 / me_range=16 / chroma_me=1 / trellis=1 / 8x8dct=1 / cqm=0 / deadzone=21,11 / fast_pskip=0 / chroma_qp_offset=-2 / threads=12 / lookahead_threads=2 / sliced_threads=0 / nr=0 / decimate=1 / interlaced=0 / bluray_compat=0 / constrained_intra=0 / bframes=3 / b_pyramid=2 / b_adapt=2 / b_bias=0 / direct=3 / weightb=1 / open_gop=0 / weightp=2 / keyint=240 / keyint_min=23 / scenecut=40 / intra_refresh=0 / rc_lookahead=50 / rc=2pass / mbtree=1 / bitrate=8365 / ratetol=1.0 / qcomp=0.60 / qpmin=0 / qpmax=69 / qpstep=4 / cplxblur=20.0 / qblur=0.5 / ip_ratio=1.40 / aq=1:1.00
Language : English
Default : Yes
Forced : No

Audio
ID : 2
Format : DTS
Format/Info : Digital Theater Systems
Mode : 16
Format settings, Endianness : Big
Codec ID : A_DTS
Duration : 1 h 42 min
Bit rate mode : Constant
Bit rate : 1 509 kb/s
Channel(s) : 6 channels
Channel positions : Front: L C R, Side: L R, LFE
Sampling rate : 48.0 kHz
Frame rate : 93.750 FPS (512 spf)
Bit depth : 24 bits
Compression mode : Lossy
Stream size : 1.08 GiB (15%)
Language : English
Default : No
Forced : No




上传的附件:
最新回复 (1)
  • jjldf 2018-10-26 20:27
    2
    谢谢分享!
返回