[GSCQ]小马国女孩 被遗忘的友谊 2018.1080p.NF.WEBRip.DDP5.1.x264-iF 1.49GB 2018 欧美 动画

似水柔情 2018-10-26 16:39 1056

My.Little.Pony.Equestria.Girls.Forgotten.Friendship.2018.1080p.NF.WEBRip.DDP5.1.x264-iF

◎译  名 小马国女孩 被遗忘的友谊

◎片  名 My Little Pony Equestria Girls: Forgotten Friendship

◎年  代 2018

◎产  地 美国

◎类  别 剧情/儿童/动画/奇幻

◎语  言 英语

◎上映日期 2018-02-17(美国)

◎IMDb评分  7.4/10 from 185 users

◎IMDb链接  http://www.imdb.com/title/tt7869818/

◎片  长 46分钟(首播)50分钟(youtube)

◎导  演 Ishi Rudell / Katrina Hadley

◎主  演 Ashleigh Ball

      Andrea Libman

      Rebecca Shoichet

      Tabitha St. Germain

      Tara Strong

      Nicole Oliver

      Cathy Weseluck

      凯瑟琳·巴尔 Kathleen Barr

      Shannon Chan-Kent

      James Kirk

      Ingrid Nilson

      Kazumi Evans


◎简  介


  入选年鉴正开心,谁知伤到人感情。记忆丢失陷困境,奇人相助来查明。

  余晖一行开心地当选了本学年的“最亲密团队”,准备次日去沙滩拍照和游玩。而第二天余晖来到沙滩,却发现她被大家孤立了。余晖感觉背后大有蹊跷,她能查明真相,夺回友情吗?


Video
ID : 1
Format : AVC
Format/Info : Advanced Video Codec
Format profile : Main@L4
Format settings : CABAC / 3 Ref Frames
Format settings, CABAC : Yes
Format settings, ReFrames : 3 frames
Codec ID : V_MPEG4/ISO/AVC
Duration : 44 min 1 s
Bit rate mode : Variable
Bit rate : 4 220 kb/s
Maximum bit rate : 6 330 kb/s
Width : 1 920 pixels
Height : 1 080 pixels
Display aspect ratio : 16:9
Frame rate mode : Constant
Frame rate : 23.976 (24000/1001) FPS
Color space : YUV
Chroma subsampling : 4:2:0
Bit depth : 8 bits
Scan type : Progressive
Bits/(Pixel*Frame) : 0.085
Stream size : 1.29 GiB (87%)
Writing library : x264 core 148 r2715 7e75228
Encoding settings : cabac=1 / ref=3 / deblock=1:0:0 / analyse=0x1:0x111 / me=umh / subme=10 / psy=1 / psy_rd=1.00:0.00 / mixed_ref=1 / me_range=24 / chroma_me=1 / trellis=2 / 8x8dct=0 / cqm=0 / deadzone=21,11 / fast_pskip=1 / chroma_qp_offset=-2 / threads=8 / lookahead_threads=1 / sliced_threads=0 / nr=0 / decimate=1 / interlaced=0 / bluray_compat=0 / stitchable=1 / constrained_intra=0 / bframes=2 / b_pyramid=0 / b_adapt=2 / b_bias=0 / direct=3 / weightb=1 / open_gop=0 / weightp=2 / keyint=48 / keyint_min=25 / scenecut=0 / intra_refresh=0 / rc_lookahead=48 / rc=2pass / mbtree=1 / bitrate=4220 / ratetol=1.0 / qcomp=0.50 / qpmin=6 / qpmax=51 / qpstep=4 / cplxblur=20.0 / qblur=0.5 / vbv_maxrate=6330 / vbv_bufsize=8440 / nal_hrd=vbr / filler=0 / ip_ratio=1.40 / aq=1:1.00
Default : Yes
Forced : No

Audio
ID : 2
Format : E-AC-3
Format/Info : Enhanced Audio Coding 3
Codec ID : A_EAC3
Duration : 44 min 2 s
Bit rate mode : Constant
Bit rate : 640 kb/s
Channel(s) : 6 channels
Channel positions : Front: L C R, Side: L R, LFE
Sampling rate : 48.0 kHz
Frame rate : 187.500 FPS (256 SPF)
Compression mode : Lossy
Stream size : 202 MiB (13%)
Service kind : Complete Main
Default : Yes
Forced : No

Text
ID : 3
Format : UTF-8
Codec ID : S_TEXT/UTF8
Codec ID/Info : UTF-8 Plain Text
Duration : 43 min 35 s
Bit rate : 77 b/s
Count of elements : 886
Stream size : 24.8 KiB (0%)
Title : English
Language : English
Default : No
Forced : No



上传的附件:
最新回复 (0)
返回