[GSCQ]人类清除计划4 The.First.Purge.2018.2160p.BluRay.x265.10bit.SDR-SWT 30GB 2018 欧美 科幻

DarkMeridian 2018-10-25 15:27 2040

The.First.Purge.2018.2160p.BluRay.x265.10bit.SDR.DTS-X.7.1-SWTYBLZ

◎译  名 人类清除计划4/杀戮元年(台)/国定杀戮日:屠亡前传(港)

◎片  名 The First Purge

◎年  代 2018

◎产  地 美国

◎类  别 科幻/犯罪/惊悚

◎语  言 英语

◎上映日期 2018-07-04(美国)

◎IMDb评分  5.2/10 from 15,767 users

◎IMDb链接  http://www.imdb.com/title/tt6133466/

◎豆瓣评分 5.3/10 from 1,606 users

◎豆瓣链接 https://movie.douban.com/subject/26905717/

◎片  长 98分钟

◎导  演 杰拉德·麦克穆雷 Gerard McMurray

◎主  演 伊兰·诺尔 Y'lan Noel

      莱克斯·斯科特·戴维斯 Lex Scott Davis

      乔瓦恩·韦德 Joivan Wade

      马加 Mugga

      帕奇·德拉奇 Patch Darragh

      玛丽莎·托梅 Marisa Tomei

      劳伦·维勒斯 Lauren Vélez

      克丽丝滕·索利斯 Kristen Solis

      莫·麦克雷 Mo McRae

      史蒂夫·哈里斯 Steve Harris

      米切尔·爱德华兹 Mitchell Edwards

      伊恩·布莱克曼 Ian Blackman

      梅罗妮·迪亚兹 Melonie Diaz

      迪德尔•古德温 Deidre Goodwin

      丽维·陈 Levy Tran

      阿兰·皮特鲁塞泽维斯基 Alan Pietruszewski

      洛根·克劳福德 Logan Crawford

      约翰·麦克金蒂 John P. McGinty


◎简  介


  电影聚焦于导致清除计划发生的原因,讲述了由于人口膨胀,社会问题加剧,一个名为New Founding Fathers of America的组织进行了一种社会学理论测试,即在某一孤立的社区进行为时一晚的发泄、攻击、侵略,促成社区人们之间的相互残杀。这一制度在全美推广,一时间马路街道都成为了杀戮的战场。故事的荒谬性吸引了大量观众,第一年的杀戮日就要降临,恶魔们都已经准备好了。


Video
ID : 1
Format : HEVC
Format/Info : High Efficiency Video Coding
Format profile : Main 10@L5.1@High
Codec ID : V_MPEGH/ISO/HEVC
Duration : 1 h 37 min
Bit rate : 36.7 Mb/s
Width : 3 840 pixels
Height : 1 606 pixels
Display aspect ratio : 2.40:1
Frame rate mode : Constant
Frame rate : 23.976 (24000/1001) FPS
Color space : YUV
Chroma subsampling : 4:2:0
Bit depth : 10 bits
Bits/(Pixel*Frame) : 0.248
Stream size : 24.9 GiB (83%)
Title : The.First.Purge.2018.2160p.BluRay.x265.10bit.SDR.DTS-X.7.1-SWTYBLZ
Writing library : x265 2.8 54-79c76e42cb28:[Windows][GCC 7.3.1][64 bit] 10bit
Encoding settings : cpuid=1111039 / frame-threads=16 / numa-pools=16,16 / wpp / no-pmode / no-pme / no-psnr / no-ssim / log-level=2 / input-csp=1 / input-res=3840x1606 / interlace=0 / total-frames=0 / level-idc=51 / high-tier=1 / uhd-bd=0 / ref=3 / no-allow-non-conformance / repeat-headers / annexb / aud / hrd / info / hash=0 / no-temporal-layers / no-open-gop / min-keyint=1 / keyint=24 / gop-lookahead=0 / bframes=4 / b-adapt=2 / b-pyramid / bframe-bias=0 / rc-lookahead=25 / lookahead-slices=4 / scenecut=40 / radl=0 / no-intra-refresh / ctu=64 / min-cu-size=8 / no-rect / no-amp / max-tu-size=32 / tu-inter-depth=1 / tu-intra-depth=1 / limit-tu=0 / rdoq-level=0 / dynamic-rd=0.00 / no-ssim-rd / signhide / no-tskip / nr-intra=0 / nr-inter=0 / no-constrained-intra / strong-intra-smoothing / max-merge=2 / limit-refs=3 / no-limit-modes / me=1 / subme=2 / merange=57 / temporal-mvp / weightp / no-weightb / no-analyze-src-pics / deblock=0:0 / no-sao / no-sao-non-deblock / rd=3 / no-early-skip / rskip / no-fast-intra / no-tskip-fast / no-cu-lossless / no-b-intra / no-splitrd-skip / rdpenalty=0 / psy-rd=2.00 / psy-rdoq=0.00 / no-rd-refine / no-lossless / cbqpoffs=0 / crqpoffs=0 / rc=crf / crf=16.0 / qcomp=0.60 / qpstep=4 / stats-write=0 / stats-read=0 / vbv-maxrate=160000 / vbv-bufsize=160000 / vbv-init=0.9 / crf-max=0.0 / crf-min=0.0 / ipratio=1.40 / pbratio=1.30 / aq-mode=1 / aq-strength=1.00 / cutree / zone-count=0 / no-strict-cbr / qg-size=32 / no-rc-grain / qpmax=69 / qpmin=0 / no-const-vbv / sar=1 / overscan=0 / videoformat=5 / range=0 / colorprim=2 / transfer=2 / colormatrix=2 / chromaloc=0 / display-window=0 / max-cll=0,0 / min-luma=0 / max-luma=1023 / log2-max-poc-lsb=8 / vui-timing-info / vui-hrd-info / slices=1 / opt-qp-pps / opt-ref-list-length-pps / no-multi-pass-opt-rps / scenecut-bias=0.05 / no-opt-cu-delta-qp / no-aq-motion / no-hdr / no-hdr-opt / no-dhdr10-opt / no-idr-recovery-sei / analysis-reuse-level=5 / scale-factor=0 / refine-intra=0 / refine-inter=0 / refine-mv=0 / no-limit-sao / ctu-info=0 / no-lowpass-dct / refine-mv-type=0 / copy-pic=1 / max-ausize-factor=1.0 / no-dynamic-refine / no-single-sei
Language : English
Default : Yes
Forced : No

Audio #1
ID : 2
Format : DTS
Format/Info : Digital Theater Systems
Format profile : X / MA / Core
Codec ID : A_DTS
Duration : 1 h 37 min
Bit rate mode : Variable / Variable / Constant
Bit rate : 6 816 kb/s / 6 816 kb/s / 1 509 kb/s
Channel(s) : Object Based / 8 channels / 6 channels
Channel positions : Object Based / Front: L C R, Side: L R, Back: L R, LFE / Front: L C R, Side: L R, LFE
Sampling rate : / 48.0 kHz / 48.0 kHz
Frame rate : 93.750 FPS (512 SPF)
Bit depth : / 24 bits / 24 bits
Compression mode : / Lossless / Lossy
Stream size : 4.64 GiB (15%)
Title : The.First.Purge.2018.2160p.BluRay.x265.10bit.SDR.DTS-X.7.1-SWTYBLZ
Language : English
Default : Yes
Forced : No

Audio #2
ID : 3
Format : AC-3
Format/Info : Audio Coding 3
Codec ID : A_AC3
Duration : 1 h 37 min
Bit rate mode : Constant
Bit rate : 640 kb/s
Channel(s) : 6 channels
Channel positions : Front: L C R, Side: L R, LFE
Sampling rate : 48.0 kHz
Frame rate : 31.250 FPS (1536 SPF)
Bit depth : 16 bits
Compression mode : Lossy
Stream size : 446 MiB (1%)
Title : The.First.Purge.2018.2160p.BluRay.x265.10bit.SDR.DTS-X.7.1-SWTYBLZ
Language : English
Service kind : Complete Main
Default : No
Forced : No

Text #1
ID : 4
Format : UTF-8
Codec ID : S_TEXT/UTF8
Codec ID/Info : UTF-8 Plain Text
Duration : 1 h 33 min
Bit rate : 68 b/s
Count of elements : 1496
Stream size : 46.8 KiB (0%)
Title : English-SRT
Language : English
Default : No
Forced : No

Text #2
ID : 5
Format : PGS
Muxing mode : zlib
Codec ID : S_HDMV/PGS
Codec ID/Info : Picture based subtitle format used on BDs/HD-DVDs
Duration : 1 h 33 min
Bit rate : 46.1 kb/s
Count of elements : 2992
Stream size : 30.7 MiB (0%)
Title : English-PGS
Language : English
Default : Yes
Forced : No

Text #3
ID : 6
Format : PGS
Muxing mode : zlib
Codec ID : S_HDMV/PGS
Codec ID/Info : Picture based subtitle format used on BDs/HD-DVDs
Duration : 1 h 36 min
Bit rate : 33.0 kb/s
Count of elements : 2326
Stream size : 22.8 MiB (0%)
Title : Spanish-PGS
Language : Spanish
Default : No
Forced : No

Text #4
ID : 7
Format : PGS
Muxing mode : zlib
Codec ID : S_HDMV/PGS
Codec ID/Info : Picture based subtitle format used on BDs/HD-DVDs
Duration : 1 h 36 min
Bit rate : 32.8 kb/s
Count of elements : 2476
Stream size : 22.6 MiB (0%)
Title : French-PGS
Language : French
Default : No
Forced : No

Menu
00:00:00.000 : :Chapter 1
00:06:25.635 : :Chapter 2
00:11:59.802 : :Chapter 3
00:16:18.769 : :Chapter 4
00:21:18.110 : :Chapter 5
00:25:56.388 : :Chapter 6
00:30:54.143 : :Chapter 7
00:35:31.212 : :Chapter 8
00:38:41.110 : :Chapter 9
00:43:02.454 : :Chapter 10
00:48:34.411 : :Chapter 11
00:53:35.086 : :Chapter 12
00:55:59.564 : :Chapter 13
00:59:13.049 : :Chapter 14
01:05:25.713 : :Chapter 15
01:09:31.792 : :Chapter 16
01:13:23.732 : :Chapter 17
01:19:47.532 : :Chapter 18
01:24:50.043 : :Chapter 19
01:29:54.931 : :Chapter 20






上传的附件:
最新回复 (1)
返回