[GSCQ]洋葱电影 The.Onion.Movie.2008.1080p.AMZN.WEBRip.DD5.1.x264-ABM 8.74GB 2008 欧美 喜剧

solomovie 2018-10-24 16:11 2760

The.Onion.Movie.2008.1080p.AMZN.WEBRip.DD5.1.x264-ABM

◎译  名 洋葱电影

◎片  名 The Onion Movie

◎年  代 2008

◎产  地 美国

◎类  别 喜剧

◎语  言 英语/俄语

◎上映日期 2008-06-03

◎IMDb评分  6.3/10 from 14,594 users

◎IMDb链接  http://www.imdb.com/title/tt0392878/

◎豆瓣评分 7.6/10 from 47,389 users

◎豆瓣链接 https://movie.douban.com/subject/3003137/

◎片  长 80 分钟

◎导  演 Tom Kuntz / Mike Maguire

◎主  演 Daniel Chacón

      Ken Takemoto

      史蒂文·席格 Steven Seagal


◎简  介


  洋葱电视台以新闻播报准确及时而著称,同时还制作许多专题采访节目,比如采访动作明星“击蛋侠”(史蒂文•西格 Steven Seagal 饰)和清纯流行偶像歌手梅丽莎•雪莉(莎拉•迈克埃利戈特 Sarah McElligott 饰)等。随着美国的全球性文化输出,就连在中东恐怖分子集训营受训的恐怖分子也偷看洋葱电视台的节目。电视台的新闻主播诺姆•阿彻(莱恩•卡利欧 Len Cariou 饰)反对高层与大公司合营的决定,尤其对新闻播报时插播玩具企鹅的广告不满。忍无可忍的诺姆决定在某次直播过程中宣布自己深思熟虑的宣言,但就在开口之际,洋葱电视台突遭恐怖分子袭击,诺姆被挟持,事态严峻。


Video
ID : 1
Format : AVC
Format/Info : Advanced Video Codec
Format profile : High@L4
Format settings : CABAC / 4 Ref Frames
Format settings, CABAC : Yes
Format settings, ReFrames : 4 frames
Codec ID : V_MPEG4/ISO/AVC
Duration : 1 h 29 min
Bit rate mode : Variable
Bit rate : 13.3 Mb/s
Maximum bit rate : 15.0 Mb/s
Width : 1 920 pixels
Height : 1 080 pixels
Display aspect ratio : 16:9
Frame rate mode : Constant
Frame rate : 23.976 (24000/1001) FPS
Color space : YUV
Chroma subsampling : 4:2:0
Bit depth : 8 bits
Scan type : Progressive
Bits/(Pixel*Frame) : 0.267
Stream size : 8.34 GiB (95%)
Writing library : x264 core 148 r2623 d5b2374
Encoding settings : cabac=1 / ref=4 / deblock=1:-1:-1 / analyse=0x3:0x133 / me=umh / subme=9 / psy=1 / psy_rd=1.00:0.15 / mixed_ref=1 / me_range=24 / chroma_me=1 / trellis=2 / 8x8dct=1 / cqm=0 / deadzone=21,11 / fast_pskip=1 / chroma_qp_offset=-3 / threads=34 / lookahead_threads=5 / sliced_threads=0 / nr=150 / decimate=1 / interlaced=0 / bluray_compat=0 / constrained_intra=0 / bframes=8 / b_pyramid=2 / b_adapt=2 / b_bias=0 / direct=3 / weightb=1 / open_gop=0 / weightp=2 / keyint=120 / keyint_min=61 / scenecut=0 / intra_refresh=0 / rc_lookahead=120 / rc=crf / mbtree=1 / crf=18.0 / qcomp=0.60 / qpmin=0 / qpmax=69 / qpstep=4 / vbv_maxrate=15000 / vbv_bufsize=31250 / crf_max=0.0 / nal_hrd=vbr / filler=0 / ip_ratio=1.40 / aq=3:1.00
Default : Yes
Forced : No
Color range : Limited
Color primaries : BT.709
Transfer characteristics : BT.709
Matrix coefficients : BT.709

Audio
ID : 2
Format : E-AC-3
Format/Info : Enhanced Audio Coding 3
Codec ID : A_EAC3
Duration : 1 h 29 min
Bit rate mode : Constant
Bit rate : 640 kb/s
Channel(s) : 6 channels
Channel positions : Front: L C R, Side: L R, LFE
Sampling rate : 48.0 kHz
Frame rate : 187.500 FPS (256 SPF)
Compression mode : Lossy
Stream size : 411 MiB (5%)
Language : English
Service kind : Complete Main
Default : Yes
Forced : No

Text
ID : 3
Format : UTF-8
Codec ID : S_TEXT/UTF8
Codec ID/Info : UTF-8 Plain Text
Duration : 1 h 29 min
Bit rate : 83 b/s
Count of elements : 1676
Stream size : 54.9 KiB (0%)
Language : English
Default : No
Forced : No



上传的附件:
最新回复 (0)
返回