[GSCQ]魔鸟/魔鸦 The.Raven.1963.720p.BluRay.x264-AMIABLE 4.37GB 更早 欧美 奇幻

Connie 2018-10-24 15:51 1248

The.Raven.1963.720p.BluRay.x264-AMIABLE

◎译  名 魔鸟/魔鸦

◎片  名 The Raven

◎年  代 1963

◎产  地 美国

◎类  别 喜剧/奇幻/恐怖

◎语  言 英语

◎上映日期 1963-01-25

◎IMDb评分  6.7/10 from 8,871 users

◎IMDb链接  http://www.imdb.com/title/tt0057449/

◎豆瓣评分 6.5/10 from 105 users

◎豆瓣链接 https://movie.douban.com/subject/1303391/

◎片  长 86 分钟

◎导  演 罗杰·科曼 Roger Corman

◎主  演 文森特·普莱斯 Vincent Price

      彼得·洛 Peter Lorre

      杰克·尼科尔森 Jack Nicholson

      波利斯·卡洛夫 Boris Karloff


◎简  介


  在一个夜晚,魔法师克诺夫遇见了被斯卡夫得变成了乌鸦的贝多得,经过贝得多的叙述,克诺夫知道斯卡夫得控制了亡妻丽诺尔的灵魂。于是,克诺夫和贝多得一行人就踏上了向斯卡夫得复仇的道路...让人意想不到的是,贝多得和丽诺尔都是斯卡夫得的党羽,最后,克诺夫踏上了自救与复仇的道路...


Video
ID : 1
Format : AVC
Format/Info : Advanced Video Codec
Format profile : High@L4.1
Format settings : CABAC / 5 Ref Frames
Format settings, CABAC : Yes
Format settings, RefFrames : 5 frames
Codec ID : V_MPEG4/ISO/AVC
Duration : 1 h 26 min
Bit rate : 5 754 kb/s
Width : 1 280 pixels
Height : 544 pixels
Display aspect ratio : 2.35:1
Frame rate mode : Constant
Frame rate : 23.976 (24000/1001) FPS
Color space : YUV
Chroma subsampling : 4:2:0
Bit depth : 8 bits
Scan type : Progressive
Bits/(Pixel*Frame) : 0.345
Stream size : 3.38 GiB (77%)
Writing library : x264 core 142 r2479 dd79a61
Encoding settings : cabac=1 / ref=5 / deblock=1:-3:-3 / analyse=0x3:0x113 / me=umh / subme=8 / psy=1 / psy_rd=1.00:0.00 / mixed_ref=1 / me_range=16 / chroma_me=1 / trellis=1 / 8x8dct=1 / cqm=0 / deadzone=21,11 / fast_pskip=1 / chroma_qp_offset=-2 / threads=12 / lookahead_threads=2 / sliced_threads=0 / nr=0 / decimate=1 / interlaced=0 / bluray_compat=0 / constrained_intra=0 / bframes=3 / b_pyramid=2 / b_adapt=2 / b_bias=0 / direct=3 / weightb=1 / open_gop=0 / weightp=2 / keyint=240 / keyint_min=24 / scenecut=40 / intra_refresh=0 / rc_lookahead=50 / rc=2pass / mbtree=1 / bitrate=5754 / ratetol=1.0 / qcomp=0.60 / qpmin=0 / qpmax=69 / qpstep=4 / cplxblur=20.0 / qblur=0.5 / ip_ratio=1.40 / aq=1:1.00
Language : English
Default : Yes
Forced : No

Audio
ID : 2
Format : DTS
Format/Info : Digital Theater Systems
Mode : 16
Format settings, Endianness : Big
Codec ID : A_DTS
Duration : 1 h 26 min
Bit rate mode : Constant
Bit rate : 1 509 kb/s
Channel(s) : 2 channels
Channel positions : Front: L R
Sampling rate : 48.0 kHz
Frame rate : 93.750 FPS (512 SPF)
Bit depth : 24 bits
Compression mode : Lossy
Stream size : 930 MiB (21%)
Language : English
Default : Yes
Forced : No

Text
ID : 3
Format : UTF-8
Codec ID : S_TEXT/UTF8
Codec ID/Info : UTF-8 Plain Text
Language : English
Default : No
Forced : No

Menu
00:00:00.000 : en:00:00:00.000
00:05:03.512 : en:00:05:03.512
00:10:16.866 : en:00:10:16.866
00:16:51.510 : en:00:16:51.510
00:25:00.874 : en:00:25:00.874
00:35:59.282 : en:00:35:59.282
00:42:28.963 : en:00:42:28.963
00:50:03.584 : en:00:50:03.584
00:56:38.604 : en:00:56:38.604
01:03:41.067 : en:01:03:41.067
01:10:44.073 : en:01:10:44.073
01:18:56.815 : en:01:18:56.815


上传的附件:
最新回复 (0)
返回