[GSCQ]外星人吃了我的作业 2018.1080p.BluRay.REMUX.AVC.DTS-HD.MA.5.1-FGT 23GB 2018 欧美 喜剧

62581126 2018-10-24 15:46 1440

Aliens.Ate.My.Homework.2018.1080p.BluRay.REMUX.AVC.DTS-HD.MA.5.1-FGT

◎译  名 外星人吃了我的作业

◎片  名 aliens-ate-my-homework

◎年  代 2018

◎产  地 美国

◎类  别 喜剧/冒险/家庭

◎语  言 英语

◎上映日期 2018-03-06(美国)

◎IMDb评分  4.9/10 from 330 users

◎IMDb链接  http://www.imdb.com/title/tt6624126/

◎豆瓣评分 /10 from 0 users

◎豆瓣链接 https://movie.douban.com/subject/30164952/

◎片  长 90分钟

◎导  演 肖恩·麦克纳马拉 Sean McNamara

◎主  演 London Cardinal

      泰·孔西利奥 Ty Consiglio

      Christian Convery

      Jayden Greig

      Carmela Nossa Guizzo

      Lanein Harrison


◎简  介


  外星人吃了我的作业,是《罗德·奥尔布莱特和银河巡逻队》系列畅销丛书的第一册,由国际著名作家布鲁斯·考威尔撰写,四册传奇故事,在世界各地,已经售出超过1700万本,并被翻译成16种语言。

  当一艘迷你星际飞船撞入了12岁的罗德·奥尔布莱特的卧室时,是他和他表妹星际冒险的开始。外星银河巡逻队招募了一群外世界的飞行员,罗德表兄妹俩必须拯救地球,消灭伪装成地球人的外星人,才能避免行星大灾难。

  片中名为菲尔的植物,由星际迷航的威廉·夏纳配音。


Video
ID : 1
Format : AVC
Format/Info : Advanced Video Codec
Format profile : High@L4.1
Format settings : CABAC / 2 Ref Frames
Format settings, CABAC : Yes
Format settings, ReFrames : 2 frames
Format settings, GOP : M=1, N=5
Codec ID : V_MPEG4/ISO/AVC
Duration : 1 h 30 min
Bit rate mode : Variable
Bit rate : 31.3 Mb/s
Maximum bit rate : 38.2 Mb/s
Width : 1 920 pixels
Height : 1 080 pixels
Display aspect ratio : 16:9
Frame rate mode : Constant
Frame rate : 23.976 (24000/1001) FPS
Color space : YUV
Chroma subsampling : 4:2:0
Bit depth : 8 bits
Scan type : Progressive
Bits/(Pixel*Frame) : 0.629
Stream size : 19.7 GiB (85%)
Title : Aliens.Ate.My.Homework.2018.1080p.BluRay.REMUX.AVC.DTS-HD.MA.5.1-FGT
Language : English
Default : No
Forced : No

Audio #1
ID : 2
Format : DTS
Format/Info : Digital Theater Systems
Format profile : MA / Core
Codec ID : A_DTS
Duration : 1 h 30 min
Bit rate mode : Variable / Constant
Bit rate : 3 840 kb/s / 1 509 kb/s
Channel(s) : 6 channels
Channel positions : Front: L C R, Side: L R, LFE
Sampling rate : 48.0 kHz
Frame rate : 93.750 FPS (512 SPF)
Bit depth : 24 bits
Compression mode : Lossless / Lossy
Stream size : 2.42 GiB (10%)
Title : Aliens.Ate.My.Homework.2018.1080p.BluRay.REMUX.AVC.DTS-HD.MA.5.1-FGT
Language : English
Default : Yes
Forced : No

Audio #2
ID : 3
Format : DTS
Format/Info : Digital Theater Systems
Codec ID : A_DTS
Duration : 1 h 30 min
Bit rate mode : Constant
Bit rate : 1 509 kb/s
Channel(s) : 6 channels
Channel positions : Front: L C R, Side: L R, LFE
Sampling rate : 48.0 kHz
Frame rate : 93.750 FPS (512 SPF)
Bit depth : 24 bits
Compression mode : Lossy
Stream size : 973 MiB (4%)
Title : Aliens.Ate.My.Homework.2018.1080p.BluRay.REMUX.AVC.DTS-HD.MA.5.1-FGT
Language : English
Default : No
Forced : No

Text
ID : 4
Format : PGS
Muxing mode : zlib
Codec ID : S_HDMV/PGS
Codec ID/Info : Picture based subtitle format used on BDs/HD-DVDs
Duration : 1 h 26 min
Bit rate : 47.6 kb/s
Count of elements : 2079
Stream size : 29.3 MiB (0%)
Title : English-PGS
Language : English
Default : No
Forced : No

Menu
00:00:00.000 : en:Chapter 01
00:10:00.349 : en:Chapter 02
00:20:01.533 : en:Chapter 03
00:30:01.633 : en:Chapter 04
00:40:02.274 : en:Chapter 05
00:50:03.417 : en:Chapter 06
01:00:03.224 : en:Chapter 07
01:10:04.074 : en:Chapter 08
01:20:04.424 : en:Chapter 09
01:30:05.108 : en:Chapter 10




上传的附件:
最新回复 (0)
返回