[GSCQ]葬礼上的死亡 Death.At.A.Funeral.2007.1080p.BluRay.x264-iKA 7.95GB 2007 欧美 喜剧

似水柔情 2018-10-23 17:32 1008

Death.At.A.Funeral.2007.1080p.BluRay.x264-iKA

◎译  名 葬礼上的死亡/超完美告别

◎片  名 Death at a Funeral

◎年  代 2007

◎产  地 英国/美国/德国/荷兰

◎类  别 喜剧

◎语  言 英语

◎上映日期 2007-07-19(德国)

◎IMDb评分  7.4/10 from 98,937 users

◎IMDb链接  http://www.imdb.com/title/tt0795368/

◎豆瓣评分 8.1/10 from 57,910 users

◎豆瓣链接 https://movie.douban.com/subject/2003389/

◎片  长 90 分钟

◎导  演 弗兰克·奥兹 Frank Oz

◎主  演 马修·麦克费登 Matthew Macfadyen

      凯莉·霍威 Keeley Hawes

      安迪·尼曼 Andy Nyman

      艾文·布莱纳 Ewen Bremner

      黛西·唐洛范 Daisy Donovan

      艾伦·图代克 Alan Tudyk

      珍·爱舍 Jane Asher

      克里斯·马歇尔 Kris Marshall

      鲁珀特·格雷夫斯 Rupert Graves

      皮特·沃恩 Peter Vaughan

      托马斯 惠特利 Thomas Wheatley

      皮特·艾甘 Peter Egan

      彼特·丁克拉奇 Peter Dinklage

      Brendan O'Hea

      Jeremy Booth


◎简  介


  丹尼尔(马修·麦克费登  Matthew Macfadyen 饰)是个久不得志的作家,而且一直生活在名作家哥哥罗伯特(拉珀特·格雷夫斯 Rupert Graves 饰)的阴影之下。默默担负赡养父母义务的他这次主办父亲的葬礼,却同样被哥哥喧宾夺主。

  本来严肃而又神圣的葬礼更是被堂姐的未婚夫,错食了迷幻药的可怜虫西蒙(艾伦·图代克 Alan Tudyk 饰),搅得一团糟。然而更大的危机在后面,一个神秘的侏儒男子(彼特·丁拉基  Peter Dinklage 饰)现身了,带着毁坏父亲所有声名的证据对丹尼尔进行敲诈。原来丹尼尔的父亲是同性恋,这个秘密眼看就要在他死后被揭开。

  在一团混乱中,葬礼断断续续的进行着。戏剧化的悲伤和幽默悄然向我们揭示葬礼的意义——带着挚爱的心情缅怀死者,也让生者将不如意的过去埋葬在葬礼上。


◎获奖情况


  第60届洛迦诺国际电影节  (2007)

  观众选择奖 弗兰克·奥兹


Video
ID : 1
Format : AVC
Format/Info : Advanced Video Codec
Format profile : High@L5.1
Format settings : CABAC / 5 Ref Frames
Format settings, CABAC : Yes
Format settings, ReFrames : 5 frames
Codec ID : V_MPEG4/ISO/AVC
Duration : 1 h 30 min
Bit rate : 11.0 Mb/s
Width : 1 920 pixels
Height : 1 080 pixels
Display aspect ratio : 16:9
Frame rate mode : Constant
Frame rate : 23.976 FPS
Color space : YUV
Chroma subsampling : 4:2:0
Bit depth : 8 bits
Scan type : Progressive
Bits/(Pixel*Frame) : 0.222
Stream size : 6.83 GiB (86%)
Writing library : x264 core 65 r999M cc51047
Encoding settings : cabac=1 / ref=5 / deblock=1:0:0 / analyse=0x3:0x133 / me=umh / subme=7 / psy_rd=1.0:0.0 / mixed_ref=1 / me_range=16 / chroma_me=1 / trellis=1 / 8x8dct=1 / cqm=2 / deadzone=21,11 / chroma_qp_offset=-2 / threads=3 / nr=0 / decimate=1 / mbaff=0 / bframes=3 / b_pyramid=1 / b_adapt=1 / b_bias=0 / direct=1 / wpredb=1 / keyint=250 / keyint_min=25 / scenecut=40(pre) / rc=2pass / bitrate=11042 / ratetol=1.0 / qcomp=0.60 / qpmin=10 / qpmax=51 / qpstep=4 / cplxblur=20.0 / qblur=0.5 / ip_ratio=1.40 / pb_ratio=1.30 / aq=1:1.00
Language : English
Default : Yes
Forced : No

Audio
ID : 2
Format : DTS
Format/Info : Digital Theater Systems
Codec ID : A_DTS
Duration : 1 h 30 min
Bit rate mode : Constant
Bit rate : 1 509 kb/s
Channel(s) : 6 channels
Channel positions : Front: L C R, Side: L R, LFE
Sampling rate : 48.0 kHz
Frame rate : 93.750 FPS (512 SPF)
Bit depth : 16 bits
Compression mode : Lossy
Stream size : 978 MiB (12%)
Language : English
Default : Yes
Forced : No




上传的附件:
最新回复 (0)
返回