[GSCQ]匿名者/视界战 Anon.2018.1080p.BluRay.REMUX.AVC.DTS-HD.MA.5.1-FGT 16GB 2018 欧美 科幻

似水柔情 2018-10-22 17:13 2508

Anon.2018.1080p.BluRay.REMUX.AVC.DTS-HD.MA.5.1-FGT

◎片  名 Anon

◎年  代 2018

◎产  地 德国

◎类  别 科幻/惊悚

◎语  言 英语

◎上映日期 2018-05-04(德国)

◎IMDb评分  6.0/10 from 20,076 users

◎IMDb链接  http://www.imdb.com/title/tt5397194/

◎豆瓣评分 6.3/10 from 3,914 users

◎豆瓣链接 https://movie.douban.com/subject/26722224/

◎片  长 100分钟

◎导  演 安德鲁·尼科尔 Andrew Niccol

◎主  演 克里夫·欧文 Clive Owen

      阿曼达·塞弗里德 Amanda Seyfried

      科鲁姆·费奥瑞 Colm Feore

      索尼亚·瓦格尔 Sonya Walger

      马克·奥布莱恩 Mark O'Brien

      乔·平格 Joe Pingue

      伊多·戈德堡 Iddo Goldberg

      塞巴斯蒂安·皮戈特 Sebastian Pigott

      瑞秋·罗伯茨 Rachel Roberts

      马克·格拉齐尼 Marco Grazzini

      康拉德·科茨 Conrad Coates

      梅寇·阮 Mayko Nguyen

      萨拉·米蒂奇 Sara Mitich

      达蒙·伦延 Damon Runyan


◎简  介


  故事将聚焦欧文饰演的侦探生活在没有隐私,满是匿名举报者的世界。那里的一切公开透明,任何行为都在政府窥探、监管之下。然而,当侦探发现塞弗里德饰演的年轻女子,在警察的监管下隐于无形后。侦探真正开始思考,政府的行径是否才真的是在犯罪。


Video
ID : 1
Format : AVC
Format/Info : Advanced Video Codec
Format profile : High@L4.1
Format settings : CABAC / 4 Ref Frames
Format settings, CABAC : Yes
Format settings, ReFrames : 4 frames
Codec ID : V_MPEG4/ISO/AVC
Duration : 1 h 39 min
Bit rate mode : Variable
Bit rate : 21.9 Mb/s
Maximum bit rate : 30.0 Mb/s
Width : 1 920 pixels
Height : 1 080 pixels
Display aspect ratio : 16:9
Frame rate mode : Constant
Frame rate : 23.976 (24000/1001) FPS
Standard : NTSC
Color space : YUV
Chroma subsampling : 4:2:0
Bit depth : 8 bits
Scan type : Progressive
Bits/(Pixel*Frame) : 0.441
Stream size : 15.3 GiB (91%)
Title : Anon.2018.1080p.BluRay.REMUX.AVC.DTS-HD.MA.5.1-FGT
Language : English
Default : No
Forced : No
Color range : Limited
Color primaries : BT.709
Transfer characteristics : BT.709
Matrix coefficients : BT.709

Audio #1
ID : 2
Format : DTS
Format/Info : Digital Theater Systems
Format profile : MA / Core
Codec ID : A_DTS
Duration : 1 h 39 min
Bit rate mode : Variable / Constant
Bit rate : 1 280 kb/s / 768 kb/s
Channel(s) : 6 channels
Channel positions : Front: L C R, Side: L R, LFE
Sampling rate : 48.0 kHz
Frame rate : 93.750 FPS (512 SPF)
Bit depth : 16 bits
Compression mode : Lossless / Lossy
Stream size : 908 MiB (5%)
Title : Anon.2018.1080p.BluRay.REMUX.AVC.DTS-HD.MA.5.1-FGT
Language : English
Default : Yes
Forced : No

Audio #2
ID : 3
Format : DTS
Format/Info : Digital Theater Systems
Codec ID : A_DTS
Duration : 1 h 39 min
Bit rate mode : Constant
Bit rate : 768 kb/s
Channel(s) : 6 channels
Channel positions : Front: L C R, Side: L R, LFE
Sampling rate : 48.0 kHz
Frame rate : 93.750 FPS (512 SPF)
Bit depth : 16 bits
Compression mode : Lossy
Stream size : 548 MiB (3%)
Title : Anon.2018.1080p.BluRay.REMUX.AVC.DTS-HD.MA.5.1-FGT
Language : English
Default : No
Forced : No

Menu
00:00:00.000 : en:Chapter 01
00:21:58.859 : en:Chapter 02
00:31:47.572 : en:Chapter 03
00:41:29.236 : en:Chapter 04
01:01:34.482 : en:Chapter 05
01:14:49.735 : en:Chapter 06
01:22:25.732 : en:Chapter 07
01:32:05.603 : en:Chapter 08




上传的附件:
最新回复 (1)
  • jjldf 2018-10-22 17:51
    2
    谢谢分享!
返回