[GSCQ]德鲁大叔 Uncle.Drew.2018.2160p.BluRay.x265.10bit.SDR.DTS-SWTYBLZ 31G 2018 欧美 喜剧

solomovie 2018-10-22 16:29 1716

Uncle.Drew.2018.2160p.BluRay.x265.10bit.SDR.DTS-HD.MA.TrueHD.7.1.Atmos-SWTYBLZ

◎译  名 速度与激情/玩命关头/狂野时速

◎片  名 The Fast and the Furious

◎年  代 2001

◎产  地 美国/德国

◎类  别 动作/犯罪

◎语  言 英语

◎上映日期 2001-06-22(美国)

◎IMDb评分  6.8/10 from 309,714 users

◎IMDb链接  http://www.imdb.com/title/tt0232500/

◎豆瓣评分 7.6/10 from 101,642 users

◎豆瓣链接 https://movie.douban.com/subject/1304899/

◎片  长 106分钟

◎导  演 罗伯·科恩 Rob Cohen

◎主  演 范·迪塞尔 Vin Diesel

      保罗·沃克 Paul Walker

      乔丹娜·布鲁斯特 Jordana Brewster

      米歇尔·罗德里格兹 Michelle Rodriguez

      尹成植 Rick Yune

      查德·林德伯格 Chad Lindberg

      强尼·斯特朗 Johnny Strong

      马特·斯查尔兹 Matt Schulze

      泰德·拉文 Ted Levine

      杰·鲁 Ja Rule

      维托·鲁吉尼斯 Vyto Ruginis

      汤姆·巴瑞 Thom Barry

      诺尔·古格雷米 Noel Gugliemi


◎简  介


  洛杉矶的年轻人都热衷于街头赛车,在这里,只要你拥有速度,你就拥有一切。新晋警官布赖恩(保罗•沃克 Paul Walker 饰)为了破获最近屡屡发生的飞车党劫车案而充当卧底,打入这里活跃的飞车党帮派中,搜集证据以期将罪犯乘之于法。布赖恩凭借高超的车技很快赢得了飞车党老大多米尼克(范•迪塞尔 Vin Diesel 饰)的欣赏和信任,并且很快和多米尼克的妹妹米亚(乔丹娜•布鲁斯特 Jordana Brewster 饰)堕入爱河。然而飞车党的第二把手文斯却是对布赖恩充满敌意,原来文斯一直暗恋米亚,而且布赖恩的到来威胁着他二把手的地位。

  这时,飞车党的党员们开始怀疑他们内部藏有奸细,布赖恩的日子开始不好过。而且和多米尼克接触越久,他们之间的友谊就越加深厚,布赖恩开始进退两难。


Video
ID : 1
Format : HEVC
Format/Info : High Efficiency Video Coding
Format profile : Main 10@L5.1@High
Codec ID : V_MPEGH/ISO/HEVC
Duration : 1 h 43 min
Bit rate : 33.5 Mb/s
Width : 3 840 pixels
Height : 2 076 pixels
Display aspect ratio : 1.85:1
Frame rate mode : Constant
Frame rate : 23.976 (24000/1001) FPS
Color space : YUV
Chroma subsampling : 4:2:0
Bit depth : 10 bits
Bits/(Pixel*Frame) : 0.175
Stream size : 24.2 GiB (78%)
Title : Uncle.Drew.2018.2160p.BluRay.x265.10bit.SDR.DTS-HD.MA.TrueHD.7.1.Atmos-SWTYBLZ
Writing library : x265 2.8 54-79c76e42cb28:[Windows][GCC 7.3.1][64 bit] 10bit
Encoding settings : cpuid=1111039 / frame-threads=16 / numa-pools=24,24,24,24 / wpp / no-pmode / no-pme / no-psnr / no-ssim / log-level=2 / input-csp=1 / input-res=3840x2076 / interlace=0 / total-frames=0 / level-idc=51 / high-tier=1 / uhd-bd=0 / ref=3 / no-allow-non-conformance / repeat-headers / annexb / aud / hrd / info / hash=0 / no-temporal-layers / no-open-gop / min-keyint=1 / keyint=24 / gop-lookahead=0 / bframes=4 / b-adapt=2 / b-pyramid / bframe-bias=0 / rc-lookahead=25 / lookahead-slices=4 / scenecut=40 / radl=0 / no-intra-refresh / ctu=64 / min-cu-size=8 / no-rect / no-amp / max-tu-size=32 / tu-inter-depth=1 / tu-intra-depth=1 / limit-tu=0 / rdoq-level=0 / dynamic-rd=0.00 / no-ssim-rd / signhide / no-tskip / nr-intra=0 / nr-inter=0 / no-constrained-intra / strong-intra-smoothing / max-merge=2 / limit-refs=3 / no-limit-modes / me=1 / subme=2 / merange=57 / temporal-mvp / weightp / no-weightb / no-analyze-src-pics / deblock=0:0 / no-sao / no-sao-non-deblock / rd=3 / no-early-skip / rskip / no-fast-intra / no-tskip-fast / no-cu-lossless / no-b-intra / no-splitrd-skip / rdpenalty=0 / psy-rd=2.00 / psy-rdoq=0.00 / no-rd-refine / no-lossless / cbqpoffs=0 / crqpoffs=0 / rc=crf / crf=16.0 / qcomp=0.60 / qpstep=4 / stats-write=0 / stats-read=0 / vbv-maxrate=160000 / vbv-bufsize=160000 / vbv-init=0.9 / crf-max=0.0 / crf-min=0.0 / ipratio=1.40 / pbratio=1.30 / aq-mode=1 / aq-strength=1.00 / cutree / zone-count=0 / no-strict-cbr / qg-size=32 / no-rc-grain / qpmax=69 / qpmin=0 / no-const-vbv / sar=1 / overscan=0 / videoformat=5 / range=0 / colorprim=2 / transfer=2 / colormatrix=2 / chromaloc=0 / display-window=0 / max-cll=0,0 / min-luma=0 / max-luma=1023 / log2-max-poc-lsb=8 / vui-timing-info / vui-hrd-info / slices=1 / opt-qp-pps / opt-ref-list-length-pps / no-multi-pass-opt-rps / scenecut-bias=0.05 / no-opt-cu-delta-qp / no-aq-motion / no-hdr / no-hdr-opt / no-dhdr10-opt / no-idr-recovery-sei / analysis-reuse-level=5 / scale-factor=0 / refine-intra=0 / refine-inter=0 / refine-mv=0 / no-limit-sao / ctu-info=0 / no-lowpass-dct / refine-mv-type=0 / copy-pic=1 / max-ausize-factor=1.0 / no-dynamic-refine / no-single-sei
Default : Yes
Forced : No

Audio #1
ID : 2
Format : TrueHD
Format profile : TrueHD+Atmos / TrueHD
Codec ID : A_TRUEHD
Duration : 1 h 43 min
Bit rate mode : Variable
Bit rate : 4 343 kb/s
Maximum bit rate : 7 086 kb/s
Channel(s) : Object Based / 8 channels
Channel positions : Object Based / Front: L C R, Side: L R, Back: L R, LFE
Sampling rate : / 48.0 kHz
Frame rate : 1 200.000 FPS (40 SPF)
Compression mode : Lossless
Stream size : 3.13 GiB (10%)
Title : Uncle.Drew.2018.2160p.BluRay.x265.10bit.SDR.DTS-HD.MA.TrueHD.7.1.Atmos-SWTYBLZ
Language : English
Default : Yes
Forced : No

Audio #2
ID : 3
Format : DTS
Format/Info : Digital Theater Systems
Format profile : MA / Core
Codec ID : A_DTS
Duration : 1 h 43 min
Bit rate mode : Variable / Constant
Bit rate : 4 177 kb/s / 1 509 kb/s
Channel(s) : 8 channels / 6 channels
Channel positions : Front: L C R, Side: L R, Back: L R, LFE / Front: L C R, Side: L R, LFE
Sampling rate : 48.0 kHz
Frame rate : 93.750 FPS (512 SPF)
Bit depth : 24 bits
Compression mode : Lossless / Lossy
Stream size : 3.01 GiB (10%)
Title : Uncle.Drew.2018.2160p.BluRay.x265.10bit.SDR.DTS-HD.MA.TrueHD.7.1.Atmos-SWTYBLZ
Language : English
Default : No
Forced : No

Audio #3
ID : 4
Format : AC-3
Format/Info : Audio Coding 3
Codec ID : A_AC3
Duration : 1 h 43 min
Bit rate mode : Constant
Bit rate : 640 kb/s
Channel(s) : 6 channels
Channel positions : Front: L C R, Side: L R, LFE
Sampling rate : 48.0 kHz
Frame rate : 31.250 FPS (1536 SPF)
Bit depth : 16 bits
Compression mode : Lossy
Stream size : 473 MiB (1%)
Title : Uncle.Drew.2018.2160p.BluRay.x265.10bit.SDR.DTS-HD.MA.TrueHD.7.1.Atmos-SWTYBLZ
Language : English
Service kind : Complete Main
Default : No
Forced : No

Text #1
ID : 5
Format : UTF-8
Codec ID : S_TEXT/UTF8
Codec ID/Info : UTF-8 Plain Text
Duration : 1 h 38 min
Bit rate : 97 b/s
Count of elements : 1909
Stream size : 70.6 KiB (0%)
Title : English-SRT
Language : English
Default : Yes
Forced : No

Text #2
ID : 6
Format : PGS
Muxing mode : zlib
Codec ID : S_HDMV/PGS
Codec ID/Info : Picture based subtitle format used on BDs/HD-DVDs
Duration : 1 h 42 min
Bit rate : 69.5 kb/s
Count of elements : 4138
Stream size : 51.0 MiB (0%)
Title : English-PGS
Language : English
Default : No
Forced : No

Text #3
ID : 7
Format : PGS
Muxing mode : zlib
Codec ID : S_HDMV/PGS
Codec ID/Info : Picture based subtitle format used on BDs/HD-DVDs
Duration : 1 h 38 min
Bit rate : 66.4 kb/s
Count of elements : 3798
Stream size : 46.9 MiB (0%)
Title : English-SDH-PGS
Language : English
Default : No
Forced : No

Text #4
ID : 8
Format : PGS
Muxing mode : zlib
Codec ID : S_HDMV/PGS
Codec ID/Info : Picture based subtitle format used on BDs/HD-DVDs
Duration : 1 h 38 min
Bit rate : 58.8 kb/s
Count of elements : 3531
Stream size : 41.5 MiB (0%)
Title : Spanish-PGS
Language : Spanish
Default : No
Forced : No

Menu
00:00:00.000 : :Chapter 1
00:06:33.434 : :Chapter 2
00:11:59.343 : :Chapter 3
00:17:44.938 : :Chapter 4
00:25:45.335 : :Chapter 5
00:30:54.227 : :Chapter 6
00:37:45.846 : :Chapter 7
00:42:25.793 : :Chapter 8
00:48:51.386 : :Chapter 9
00:54:09.788 : :Chapter 10
01:00:13.067 : :Chapter 11
01:06:07.964 : :Chapter 12
01:12:28.969 : :Chapter 13
01:17:34.149 : :Chapter 14
01:26:37.942 : :Chapter 15
01:32:36.384 : :Chapter 16






上传的附件:
最新回复 (4)
  • 饭仔机器猫 2018-10-24 10:47
    5
    介绍完全错位了哦
  • mimosa0117 2018-10-22 19:11
    4
    不是,你这内容简介是个啥啊
  • mimosa0117 2018-10-22 19:11
    3
    ??????????????????????
  • jjldf 2018-10-22 17:55
    2
    谢谢分享!
返回