[GSCQ]德鲁大叔 2018.2160p.BluRay.REMUX.HEVC.DTS-HD.MA.TrueHD.7.1.Atmos-FGT 60GB 2018 欧美 喜剧

Connie 2018-10-22 16:11 960

Uncle.Drew.2018.2160p.BluRay.REMUX.HEVC.DTS-HD.MA.TrueHD.7.1.Atmos-FGT

◎译  名 德鲁大叔/街頭祖霸王(港)

◎片  名 Uncle Drew

◎年  代 2018

◎产  地 美国

◎类  别 喜剧/运动

◎语  言 英语

◎上映日期 2018-06-29(美国)

◎IMDb评分  5.7/10 from 4,019 users

◎IMDb链接  http://www.imdb.com/title/tt7334528/

◎豆瓣评分 7.1/10 from 2,746 users

◎豆瓣链接 https://movie.douban.com/subject/27074301/

◎片  长 103分钟

◎导  演 查尔斯·斯通三世 Charles Stone III

◎主  演 凯里·欧文 Kyie Irving

      里尔·莱尔·哈瓦瑞 Lil Rel Howery

      沙奎尔·奥尼尔 Shaquille O'Neal

      克里斯·韦伯 Chris Webber

      雷吉·米勒 Reggie Miller

      内特·罗宾逊 Nate Robinson

      丽萨·莱斯利 Lisa Leslie

      埃丽卡·阿什 Erica Ash

      蒂凡尼·哈迪斯 Tiffany Haddish

      尼克·克罗尔 Nick Kroll

      迈克·艾普斯 Mike Epps

      J·B·斯穆夫 J.B. Smoove

      亚当·拉扎尔-怀特 Adam Lazarre-White

      比尔·沃尔顿 Bill Walton

      乔治·格文 George Gervin

      史蒂夫·纳什 Steve Nash

      迪肯贝·穆托姆博 Dikembe Mutombo

      宁宁·利克斯 NeNe Leakes

      特伦斯·罗斯摩尔 Terence Rosemore

      德韦恩·博伊德 Dwayne Boyd

      以利亚·埃弗雷特 Elijah Everett

      盖奇·劳森 Gage Lawson


◎简  介


  今年早些时候曾有媒体爆出凯里·欧文的短片《德鲁大叔》将改编成长片电影,今日又有媒体传出"大鲨鱼"沙奎尔·奥尼尔将加盟该片。

  电影将讲述一群厉害的老年篮球运动员,违反参赛资格,参加著名的洛克锦标赛,在赛场上老大爷球场狂虐小年轻,让人“目瞪狗呆”的故事。

  同名短片主要在YouTube之类的平台上播放,主题是暮年的老大爷大妈重回球场,找回青春,和百事可乐一起享受篮球的快乐。片子一共四部,第一部欧文自己出演,第二部邀请了骑士队队友凯文乐福,第三部邀请了玛雅·摩尔和特·罗宾逊,最后一部是和雷·阿伦飚三分。NBA指环王比尔·拉塞尔串场。这几部片子虽然内容稍有不同,不过套路一样。

  短片在各大影视网站上获得很高的评价,消息来源说,这个项目将由众多明星加盟,其中不乏其他几名顶尖的NBA球员,具体还有谁还不可知。

  Howery曾在《逃出绝命镇》中有出色表演,会在其中扮演一个喜欢篮球的年轻人,寻找德鲁大叔的帮助。

  影片将由狮门影业出品,马蒂·鲍文和威克·戈弗雷担任制片,《绝地逃亡》编剧Jay Longino参与剧本创作。影片上映日期未定。


Video #1
ID : 1
Format : HEVC
Format/Info : High Efficiency Video Coding
Commercial name : HDR10
Format profile : Main 10@L5.1@High
Codec ID : V_MPEGH/ISO/HEVC
Duration : 1 h 43 min
Bit rate : 66.2 Mb/s
Width : 3 840 pixels
Height : 2 160 pixels
Display aspect ratio : 16:9
Frame rate mode : Constant
Frame rate : 23.976 (24000/1001) FPS
Color space : YUV
Chroma subsampling : 4:2:0 (Type 2)
Bit depth : 10 bits
Bits/(Pixel*Frame) : 0.333
Stream size : 47.8 GiB (79%)
Title : Uncle.Drew.2018.2160p.BluRay.REMUX.HEVC.DTS-HD.MA.TrueHD.7.1.Atmos-FGT
Default : Yes
Forced : No
Color range : Limited
Color primaries : BT.2020
Transfer characteristics : PQ
Matrix coefficients : BT.2020 non-constant
Mastering display color primaries : Display P3
Mastering display luminance : min: 0.0001 cd/m2, max: 1000 cd/m2
Maximum Content Light Level : 823 cd/m2
Maximum Frame-Average Light Level : 709 cd/m2

Video #2
ID : 2
Format : HEVC
Format/Info : High Efficiency Video Coding
Commercial name : HDR10
Format profile : Main 10@L5.1@High
Codec ID : V_MPEGH/ISO/HEVC
Duration : 1 h 43 min
Bit rate : 8 086 kb/s
Width : 1 920 pixels
Height : 1 080 pixels
Display aspect ratio : 16:9
Frame rate mode : Constant
Frame rate : 23.976 (24000/1001) FPS
Color space : YUV
Chroma subsampling : 4:2:0 (Type 2)
Bit depth : 10 bits
Bits/(Pixel*Frame) : 0.163
Stream size : 5.84 GiB (10%)
Title : Uncle.Drew.2018.2160p.BluRay.REMUX.HEVC.DTS-HD.MA.TrueHD.7.1.Atmos-FGT
Default : No
Forced : No
Color range : Limited
Color primaries : BT.2020
Transfer characteristics : PQ
Matrix coefficients : BT.2020 non-constant
Mastering display color primaries : Display P3
Mastering display luminance : min: 0.0001 cd/m2, max: 1000 cd/m2

Audio #1
ID : 3
Format : TrueHD
Format profile : TrueHD+Atmos / TrueHD
Codec ID : A_TRUEHD
Duration : 1 h 43 min
Bit rate mode : Variable
Bit rate : 4 343 kb/s
Maximum bit rate : 7 086 kb/s
Channel(s) : Object Based / 8 channels
Channel positions : Object Based / Front: L C R, Side: L R, Back: L R, LFE
Sampling rate : / 48.0 kHz
Frame rate : 1 200.000 FPS (40 SPF)
Compression mode : Lossless
Stream size : 3.13 GiB (5%)
Title : Uncle.Drew.2018.2160p.BluRay.REMUX.HEVC.DTS-HD.MA.TrueHD.7.1.Atmos-FGT
Language : English
Default : Yes
Forced : No

Audio #2
ID : 4
Format : DTS
Format/Info : Digital Theater Systems
Format profile : MA / Core
Codec ID : A_DTS
Duration : 1 h 43 min
Bit rate mode : Variable / Constant
Bit rate : 4 177 kb/s / 1 509 kb/s
Channel(s) : 8 channels / 6 channels
Channel positions : Front: L C R, Side: L R, Back: L R, LFE / Front: L C R, Side: L R, LFE
Sampling rate : 48.0 kHz
Frame rate : 93.750 FPS (512 SPF)
Bit depth : 24 bits
Compression mode : Lossless / Lossy
Stream size : 3.01 GiB (5%)
Title : Uncle.Drew.2018.2160p.BluRay.REMUX.HEVC.DTS-HD.MA.TrueHD.7.1.Atmos-FGT
Language : English
Default : No
Forced : No

Audio #3
ID : 5
Format : AC-3
Format/Info : Audio Coding 3
Codec ID : A_AC3
Duration : 1 h 43 min
Bit rate mode : Constant
Bit rate : 640 kb/s
Channel(s) : 6 channels
Channel positions : Front: L C R, Side: L R, LFE
Sampling rate : 48.0 kHz
Frame rate : 31.250 FPS (1536 SPF)
Bit depth : 16 bits
Compression mode : Lossy
Stream size : 473 MiB (1%)
Title : Uncle.Drew.2018.2160p.BluRay.REMUX.HEVC.DTS-HD.MA.TrueHD.7.1.Atmos-FGT
Language : English
Service kind : Complete Main
Default : No
Forced : No

Audio #4
ID : 6
Format : AC-3
Format/Info : Audio Coding 3
Codec ID : A_AC3
Duration : 1 h 43 min
Bit rate mode : Constant
Bit rate : 224 kb/s
Channel(s) : 2 channels
Channel positions : Front: L R
Sampling rate : 48.0 kHz
Frame rate : 31.250 FPS (1536 SPF)
Bit depth : 16 bits
Compression mode : Lossy
Stream size : 166 MiB (0%)
Title : Uncle.Drew.2018.2160p.BluRay.REMUX.HEVC.DTS-HD.MA.TrueHD.7.1.Atmos-FGT
Language : English
Service kind : Complete Main
Default : No
Forced : No

Audio #5
ID : 7
Format : AC-3
Format/Info : Audio Coding 3
Codec ID : A_AC3
Duration : 1 h 43 min
Bit rate mode : Constant
Bit rate : 192 kb/s
Channel(s) : 2 channels
Channel positions : Front: L R
Sampling rate : 48.0 kHz
Frame rate : 31.250 FPS (1536 SPF)
Bit depth : 16 bits
Compression mode : Lossy
Stream size : 142 MiB (0%)
Title : Uncle.Drew.2018.2160p.BluRay.REMUX.HEVC.DTS-HD.MA.TrueHD.7.1.Atmos-FGT
Language : English
Service kind : Complete Main
Default : No
Forced : No

Text #1
ID : 8
Format : PGS
Muxing mode : zlib
Codec ID : S_HDMV/PGS
Codec ID/Info : Picture based subtitle format used on BDs/HD-DVDs
Duration : 1 h 42 min
Bit rate : 69.5 kb/s
Count of elements : 4138
Stream size : 51.0 MiB (0%)
Title : English-PGS
Language : English
Default : No
Forced : No

Text #2
ID : 9
Format : PGS
Muxing mode : zlib
Codec ID : S_HDMV/PGS
Codec ID/Info : Picture based subtitle format used on BDs/HD-DVDs
Duration : 1 h 38 min
Bit rate : 66.4 kb/s
Count of elements : 3798
Stream size : 46.9 MiB (0%)
Title : English-SDH-PGS
Language : English
Default : Yes
Forced : No

Text #3
ID : 10
Format : PGS
Muxing mode : zlib
Codec ID : S_HDMV/PGS
Codec ID/Info : Picture based subtitle format used on BDs/HD-DVDs
Duration : 1 h 38 min
Bit rate : 58.8 kb/s
Count of elements : 3531
Stream size : 41.5 MiB (0%)
Title : Spanish-PGS
Language : Spanish
Default : No
Forced : No

Menu
00:00:00.000 : :Chapter 1
00:06:33.434 : :Chapter 2
00:11:59.343 : :Chapter 3
00:17:44.938 : :Chapter 4
00:25:45.335 : :Chapter 5
00:30:54.227 : :Chapter 6
00:37:45.846 : :Chapter 7
00:42:25.793 : :Chapter 8
00:48:51.386 : :Chapter 9
00:54:09.788 : :Chapter 10
01:00:13.067 : :Chapter 11
01:06:07.964 : :Chapter 12
01:12:28.969 : :Chapter 13
01:17:34.149 : :Chapter 14
01:26:37.942 : :Chapter 15
01:32:36.384 : :Chapter 16



上传的附件:
最新回复 (0)
返回