[GSCQ]星际之门 Stargate.1994.EXTENDED.1080p.BluRay.x264.DTS-FGT 15.41GB 更早 欧美 科幻

似水柔情 2018-10-21 15:20 2244

Stargate.1994.EXTENDED.1080p.BluRay.x264.DTS-FGT

◎译  名 星际之门/时空之门/星际奇兵

◎片  名 Stargate

◎年  代 1994

◎产  地 法国/美国

◎类  别 奇幻/动作/冒险/科幻

◎语  言 英语/挪威语/瑞典语

◎上映日期 1994-10-28

◎IMDb评分  7.1/10 from 161,773 users

◎IMDb链接  http://www.imdb.com/title/tt0111282/

◎豆瓣评分 7.2/10 from 8,781 users

◎豆瓣链接 https://movie.douban.com/subject/1302209/

◎片  长 121 分钟/128 分钟(特别版)/130 分钟(导演剪辑版)

◎导  演 罗兰·艾默里奇 Roland Emmerich

◎主  演 詹姆斯·斯派德 James Spader

      库尔特·拉塞尔 Kurt Russell

      艾利希斯·克鲁兹 Alexis Cruz

      韦薇卡·琳德佛斯 Viveca Lindfors

      杰曼·翰苏 Djimon Hounsou

      艾瑞克·阿瓦利 Erick Avari

      杰伊·戴维森 Jaye Davidson

      米莉·阿威塔尔 Mili Avital


◎简  介


  美国军方在地球的某处发现了一个奇怪的圆环,圆环的制造技术完全不同于地球,而且通过测定圆环的历史非常久远甚至可以追溯到人类出现之前,圆环上还刻有很多奇怪的符号。这个圆环到底有什么作用?考古学家丹尼尔·杰克逊(詹姆斯·斯派德 James Spader 饰)博士对古埃及的象形文字及其历史有很深的研究,而且对金字塔的建造也有一套自己的理论,可是他的观点却无法被人所接受。为了能寻找有力的证据,他开始对军方发现的这个圆环进行研究,却发现这个圆环却是一个高科技产物,通过特定编码的推动能与另外一个圆环联通,形成一个虫洞,可以进行超长距离且耗时极短的空间旅行。为了探知圆环联通的另一端到底有什么,丹尼尔与杰克·欧尼尔(库尔特·拉塞尔 Kurt Russell 饰)上校为首的军方小队一起穿越这星际之门,进入另外一个世界探险。在另一边,他们发现了很多令人无法相信的事情,金字塔的建造之谜、外星人是否到访过地球这些不解之谜都有了一个新的解读……


Video
ID : 1
Format : AVC
Format/Info : Advanced Video Codec
Format profile : High@L4.1
Format settings : CABAC / 5 Ref Frames
Format settings, CABAC : Yes
Format settings, ReFrames : 5 frames
Codec ID : V_MPEG4/ISO/AVC
Duration : 2 h 9 min
Bit rate : 15.5 Mb/s
Width : 1 920 pixels
Height : 800 pixels
Display aspect ratio : 2.40:1
Frame rate mode : Constant
Frame rate : 23.976 (24000/1001) FPS
Color space : YUV
Chroma subsampling : 4:2:0
Bit depth : 8 bits
Scan type : Progressive
Bits/(Pixel*Frame) : 0.420
Stream size : 14.0 GiB (91%)
Title : Stargate.1994.EXTENDED.1080p.BluRay.x264.DTS-FGT
Writing library : x264 core 148 r2795M aaa9aa8
Encoding settings : cabac=1 / ref=5 / deblock=1:0:0 / analyse=0x3:0x133 / me=umh / subme=10 / psy=1 / psy_rd=1.00:0.00 / mixed_ref=1 / me_range=24 / chroma_me=1 / trellis=2 / 8x8dct=1 / cqm=0 / deadzone=21,11 / fast_pskip=1 / chroma_qp_offset=-2 / threads=24 / lookahead_threads=4 / sliced_threads=0 / nr=0 / decimate=1 / interlaced=0 / bluray_compat=0 / constrained_intra=0 / bframes=8 / b_pyramid=2 / b_adapt=2 / b_bias=0 / direct=3 / weightb=1 / open_gop=0 / weightp=2 / keyint=240 / keyint_min=24 / scenecut=40 / intra_refresh=0 / rc_lookahead=60 / rc=crf / mbtree=1 / crf=17.0 / qcomp=0.60 / qpmin=0 / qpmax=69 / qpstep=4 / ip_ratio=1.40 / aq=1:1.00
Language : English
Default : Yes
Forced : No

Audio
ID : 2
Format : DTS
Format/Info : Digital Theater Systems
Codec ID : A_DTS
Duration : 2 h 9 min
Bit rate mode : Constant
Bit rate : 1 509 kb/s
Channel(s) : 6 channels
Channel positions : Front: L C R, Side: L R, LFE
Sampling rate : 48.0 kHz
Frame rate : 93.750 FPS (512 SPF)
Bit depth : 24 bits
Compression mode : Lossy
Stream size : 1.37 GiB (9%)
Title : Stargate.1994.EXTENDED.1080p.BluRay.x264.DTS-FGT
Language : English
Default : No
Forced : No

Text
ID : 3
Format : UTF-8
Codec ID : S_TEXT/UTF8
Codec ID/Info : UTF-8 Plain Text
Duration : 1 h 58 min
Bit rate : 25 b/s
Count of elements : 685
Stream size : 22.4 KiB (0%)
Language : English
Default : Yes
Forced : No

Menu
00:00:00.000 : :Chapter 00
00:00:16.850 : :Chapter 01
00:04:17.090 : :Chapter 02
00:06:58.793 : :Chapter 03
00:10:41.515 : :Chapter 04
00:12:25.327 : :Chapter 05
00:21:52.019 : :Chapter 06
00:29:07.078 : :Chapter 07
00:33:40.143 : :Chapter 08
00:36:22.805 : :Chapter 09
00:44:56.860 : :Chapter 10
00:51:31.713 : :Chapter 11
00:55:52.891 : :Chapter 12
01:01:43.866 : :Chapter 13
01:13:12.679 : :Chapter 14
01:17:05.912 : :Chapter 15
01:24:16.009 : :Chapter 16
01:27:21.486 : :Chapter 17
01:32:08.272 : :Chapter 18
01:43:26.783 : :Chapter 19
01:45:58.310 : :Chapter 20
01:49:46.830 : :Chapter 21
01:58:33.898 : :Chapter 22
02:01:49.218 : :Chapter 23
02:03:42.081 : :Chapter 24




上传的附件:
最新回复 (4)
  • 黑夜里的烛光 2018-10-22 07:43
    5
    谢谢楼主。收下了!
  • jjldf 2018-10-21 20:42
    4
    谢谢分享!
  • Liyundou 2018-10-21 17:07
    3
    谢谢楼主分享
  • 傀儡师 2018-10-21 16:49
    2
    感谢分享。发布资源辛苦了。
返回