[GSCQ]茉莉 Molly.2017.1080p.AMZN.WEBRip.DDP5.1.x264-NTG 7.76GB 2017 欧美 科幻

solomovie 2018-10-21 15:14 1980

Molly.2017.1080p.AMZN.WEBRip.DDP5.1.x264-NTG

◎译  名 茉莉

◎片  名 Molly

◎年  代 2017

◎产  地 荷兰 Netherlands

◎类  别 动作/科幻

◎语  言 英语

◎上映日期 2017-02-11(European Film Market Berlin)

◎IMDb评分  7.7/10 from 482 users

◎IMDb链接  http://www.imdb.com/title/tt6522982/

◎片  长 91分钟

◎导  演 Colinda Bongers / Thijs Meuwese

◎主  演 Julia Batelaan

      Emma de Paauw

      Joost Bolt


◎简  介


  A girl living alone in a post apocalyptic wasteland finds herself hunted down by marauders who want her to fight in their fighting pit for their entertainment.


Video
ID : 1
Format : AVC
Format/Info : Advanced Video Codec
Format profile : High@L4
Format settings : CABAC / 4 Ref Frames
Format settings, CABAC : Yes
Format settings, ReFrames : 4 frames
Codec ID : V_MPEG4/ISO/AVC
Duration : 1 h 34 min
Bit rate : 11.1 Mb/s
Width : 1 920 pixels
Height : 1 040 pixels
Display aspect ratio : 1.85:1
Frame rate mode : Constant
Frame rate : 23.976 (24000/1001) FPS
Color space : YUV
Chroma subsampling : 4:2:0
Bit depth : 8 bits
Scan type : Progressive
Bits/(Pixel*Frame) : 0.231
Stream size : 7.34 GiB (95%)
Default : Yes
Forced : No
Color range : Limited
Color primaries : BT.709
Transfer characteristics : BT.709
Matrix coefficients : BT.709

Audio
ID : 2
Format : E-AC-3
Format/Info : Enhanced Audio Coding 3
Codec ID : A_EAC3
Duration : 1 h 34 min
Bit rate mode : Constant
Bit rate : 640 kb/s
Channel(s) : 6 channels
Channel positions : Front: L C R, Side: L R, LFE
Sampling rate : 48.0 kHz
Frame rate : 187.500 FPS (256 SPF)
Compression mode : Lossy
Stream size : 434 MiB (5%)
Language : English
Service kind : Complete Main
Default : Yes
Forced : No

Text
ID : 3
Format : UTF-8
Codec ID : S_TEXT/UTF8
Codec ID/Info : UTF-8 Plain Text
Duration : 1 h 34 min
Bit rate : 24 b/s
Count of elements : 821
Stream size : 16.8 KiB (0%)
Title : SDH
Language : English
Default : No
Forced : No



上传的附件:
最新回复 (0)
返回