[GSCQ]外野 The.Outer.Wild.2018.1080p.AMZN.WEBRip.DDP2.0.x264-NTG 3.52GB 2017 欧美 科幻

aostterm 2018-10-21 15:13 2016

The.Outer.Wild.2018.1080p.AMZN.WEBRip.DDP2.0.x264-NTG

◎译  名 外野

◎片  名 The Outer Wild

◎年  代 2018

◎产  地 美国

◎类  别 科幻/恐怖/惊悚

◎语  言 英语

◎IMDb评分  N/A

◎IMDb链接  https://www.imdb.com/title/tt6958520/

◎片  长 1 h 24 min

◎导  演 Philip Chidel

◎主  演 Lauren McKnight ... Laura

      Christian Oliver Christian Oliver ... Cole

      Jeffrey Vincent Parise ... Hank

      Tory Taranova ... Elsie


◎简  介


  After an unnatural event leaves mankind nearly extinct| a runaway girl and a rogue bounty hunter brave a dangerous wilderness to find a fabled sanctuary that caneither save or destroy what's left of humanity.


Video
ID : 1
Format : AVC
Format/Info : Advanced Video Codec
Format profile : High@L4
Format settings : CABAC / 4 Ref Frames
Format settings, CABAC : Yes
Format settings, ReFrames : 4 frames
Codec ID : V_MPEG4/ISO/AVC
Duration : 1 h 24 min
Bit rate : 5 743 kb/s
Width : 1 920 pixels
Height : 1 080 pixels
Display aspect ratio : 16:9
Frame rate mode : Constant
Frame rate : 23.976 (24000/1001) FPS
Color space : YUV
Chroma subsampling : 4:2:0
Bit depth : 8 bits
Scan type : Progressive
Bits/(Pixel*Frame) : 0.116
Stream size : 3.39 GiB (96%)
Default : Yes
Forced : No
Color range : Limited
Color primaries : BT.709
Transfer characteristics : BT.709
Matrix coefficients : BT.709

Audio
ID : 2
Format : E-AC-3
Format/Info : Enhanced Audio Coding 3
Codec ID : A_EAC3
Duration : 1 h 24 min
Bit rate mode : Constant
Bit rate : 224 kb/s
Channel(s) : 2 channels
Channel positions : Front: L R
Sampling rate : 48.0 kHz
Frame rate : 187.500 FPS (256 SPF)
Compression mode : Lossy
Stream size : 135 MiB (4%)
Language : English
Service kind : Complete Main
Default : Yes
Forced : No

Text
ID : 3
Format : UTF-8
Codec ID : S_TEXT/UTF8
Codec ID/Info : UTF-8 Plain Text
Duration : 1 h 22 min
Bit rate : 43 b/s
Count of elements : 1053
Stream size : 26.0 KiB (0%)
Title : SDH
Language : English
Default : No
Forced : No




上传的附件:
最新回复 (0)
返回