[GSCQ]摇滚学校/摇滚高中 1979.1080p.BluRay.REMUX.AVC.DTS-HD.MA.2.0-FGT 22GB 更早 欧美 喜剧

Connie 2018-10-20 16:18 2112

Rock.N.Roll.High.School.1979.1080p.BluRay.REMUX.AVC.DTS-HD.MA.2.0-FGT

◎译  名 摇滚学校/摇滚高中

◎片  名 Rock 'n' Roll High School

◎年  代 1979

◎产  地 美国

◎类  别 喜剧/音乐

◎语  言 英语

◎上映日期 1979-08-24

◎IMDb评分  6.8/10 from 7,651 users

◎IMDb链接  http://www.imdb.com/title/tt0079813/

◎豆瓣评分 7.7/10 from 460 users

◎豆瓣链接 https://movie.douban.com/subject/1294740/

◎片  长 93 分钟

◎导  演 埃兰 阿库什 (Allan Arkush) / 杰里 朱克 (Jerry Zucker) / 乔 丹蒂 (Joe Dante)

◎主  演 The Ramones

      Joey Ramone


◎简  介


  Vince Lombardi High School keeps losing principals to nervous breakdowns because of the students' love of rock 'n' roll and their disregard of education. The putative leader of the students is Riff Randell, who loves the music of the Ramones. A new principal, the rock-music-hating Miss Evelyn Togar, is brought in and promises to put an end to the music craze. When Miss Togar and a group of parents attempt to burn a pile of rock records, the students take over the high school, joined by the Ramones, who are made honorary students. When the police are summoned and demand that the students evacuate the building, they do so, which leads to an explosive finale.


Video
ID : 1
Format : AVC
Format/Info : Advanced Video Codec
Format profile : High@L4.1
Format settings : CABAC / 4 Ref Frames
Format settings, CABAC : Yes
Format settings, ReFrames : 4 frames
Codec ID : V_MPEG4/ISO/AVC
Duration : 1 h 33 min
Bit rate mode : Variable
Bit rate : 31.5 Mb/s
Maximum bit rate : 32.0 Mb/s
Width : 1 920 pixels
Height : 1 080 pixels
Display aspect ratio : 16:9
Frame rate mode : Constant
Frame rate : 24.000 FPS
Standard : NTSC
Color space : YUV
Chroma subsampling : 4:2:0
Bit depth : 8 bits
Scan type : Progressive
Bits/(Pixel*Frame) : 0.633
Stream size : 20.5 GiB (90%)
Title : Rock.N.Roll.High.School.1979.1080p.BluRay.REMUX.AVC.DTS-HD.MA.2.0-FGT
Language : English
Default : No
Forced : No
Color range : Full
Color primaries : BT.709
Transfer characteristics : BT.709
Matrix coefficients : BT.709

Audio #1
ID : 2
Format : DTS
Format/Info : Digital Theater Systems
Format profile : MA / Core
Codec ID : A_DTS
Duration : 1 h 33 min
Bit rate mode : Variable / Constant
Bit rate : 1 625 kb/s / 1 509 kb/s
Channel(s) : 2 channels
Channel positions : Front: L R
Sampling rate : 48.0 kHz
Frame rate : 93.750 FPS (512 SPF)
Bit depth : 16 bits
Compression mode : Lossless / Lossy
Stream size : 1.06 GiB (5%)
Title : Rock.N.Roll.High.School.1979.1080p.BluRay.REMUX.AVC.DTS-HD.MA.2.0-FGT
Language : English
Default : Yes
Forced : No

Audio #2
ID : 3
Format : DTS
Format/Info : Digital Theater Systems
Codec ID : A_DTS
Duration : 1 h 33 min
Bit rate mode : Constant
Bit rate : 1 509 kb/s
Channel(s) : 2 channels
Channel positions : Front: L R
Sampling rate : 48.0 kHz
Frame rate : 93.750 FPS (512 SPF)
Bit depth : 16 bits
Compression mode : Lossy
Stream size : 1 007 MiB (4%)
Title : Rock.N.Roll.High.School.1979.1080p.BluRay.REMUX.AVC.DTS-HD.MA.2.0-FGT
Language : English
Default : No
Forced : No

Audio #3
ID : 4
Format : AC-3
Format/Info : Audio Coding 3
Codec ID : A_AC3
Duration : 1 h 33 min
Bit rate mode : Constant
Bit rate : 192 kb/s
Channel(s) : 2 channels
Channel positions : Front: L R
Sampling rate : 48.0 kHz
Frame rate : 31.250 FPS (1536 SPF)
Bit depth : 16 bits
Compression mode : Lossy
Stream size : 128 MiB (1%)
Title : Rock.N.Roll.High.School.1979.1080p.BluRay.REMUX.AVC.DTS-HD.MA.2.0-FGT
Language : English
Service kind : Complete Main
Default : No
Forced : No

Menu
00:00:00.000 : en:Chapter 01
00:03:50.333 : en:Chapter 02
00:08:27.708 : en:Chapter 03
00:13:26.250 : en:Chapter 04
00:18:27.416 : en:Chapter 05
00:24:40.125 : en:Chapter 06
00:26:56.458 : en:Chapter 07
00:30:28.875 : en:Chapter 08
00:35:05.708 : en:Chapter 09
00:40:27.791 : en:Chapter 10
00:43:17.833 : en:Chapter 11
00:47:03.958 : en:Chapter 12
00:52:03.375 : en:Chapter 13
00:54:38.166 : en:Chapter 14
01:00:50.166 : en:Chapter 15
01:09:39.041 : en:Chapter 16
01:14:31.416 : en:Chapter 17
01:21:01.250 : en:Chapter 18
01:24:34.250 : en:Chapter 19
01:28:23.458 : en:Chapter 20




上传的附件:
最新回复 (0)
返回