[GSCQ]怀胎九月 Nine.Months.1995.1080p.BluRay.REMUX.AVC.DTS-HD.MA.5.1-FGT 20GB 更早 欧美 喜剧

Connie 2018-10-20 16:16 2472

Nine.Months.1995.1080p.BluRay.REMUX.AVC.DTS-HD.MA.5.1-FGT

◎译  名 怀胎九月/九月之痒

◎片  名 Nine Months

◎年  代 1995

◎产  地 美国

◎类  别 喜剧/爱情/家庭

◎语  言 英语

◎上映日期 1995-12-22

◎IMDb评分  5.5/10 from 32,538 users

◎IMDb链接  http://www.imdb.com/title/tt0113986/

◎豆瓣评分 6.5/10 from 2,506 users

◎豆瓣链接 https://movie.douban.com/subject/1292983/

◎片  长 103 分钟

◎导  演 克里斯·哥伦布 Chris Columbus

◎主  演 休·格兰特 Hugh Grant

      朱丽安·摩尔 Julianne Moore

      汤姆·阿诺德 Tom Arnold

      琼·库萨克 Joan Cusack

      杰夫·高布伦 Jeff Goldblum

      罗宾·威廉姆斯 Robin Williams


◎简  介


  Samuel(休•格兰特 饰)得知了同居五年的女友Rebecca(朱丽安•摩尔 饰)怀孕后,顿时感到不知所措。一向拥有自由生活的他,暂时还没有生孩子的打算。而且他的职业是个儿童精神病医师,他看到过了太多的小孩子,对他们的好感都不大。

  面对巨大的压力与责任感使Samuel感到十分痛苦,即使有好友的榜样示范与劝导,还是无法让Samuel心中的阴霾,无法接受自己将要当爸爸这件事。眼看与女友之间的关系越发恶劣,Rececca还独自住进了医院,Samuel便觉得更加无助了。

  就在这时候,他看到了自己孩子超声波的录影带,他顿时感动得不知所以。后来通过医生与朋友的耐心规劝,终于从心里承受了将要成为父亲的事实。

  Samuel与Rebecca结婚了,他要与妻子一起迎接孩子的到来,就在Rebecca即将临产的时候,Samuel及慌张又期待,变得手忙脚乱,产房里一片混乱……


Video
ID : 1
Format : AVC
Format/Info : Advanced Video Codec
Format profile : High@L4.1
Format settings : CABAC / 4 Ref Frames
Format settings, CABAC : Yes
Format settings, ReFrames : 4 frames
Codec ID : V_MPEG4/ISO/AVC
Duration : 1 h 43 min
Bit rate mode : Variable
Bit rate : 26.0 Mb/s
Maximum bit rate : 35.0 Mb/s
Width : 1 920 pixels
Height : 1 080 pixels
Display aspect ratio : 16:9
Frame rate mode : Constant
Frame rate : 23.976 (24000/1001) FPS
Standard : NTSC
Color space : YUV
Chroma subsampling : 4:2:0
Bit depth : 8 bits
Scan type : Progressive
Bits/(Pixel*Frame) : 0.524
Stream size : 18.8 GiB (92%)
Title : Nine.Months.1995.1080p.BluRay.REMUX.AVC.DTS-HD.MA.5.1-FGT
Language : English
Default : No
Forced : No
Color range : Limited
Color primaries : BT.709
Transfer characteristics : BT.709
Matrix coefficients : BT.709

Audio #1
ID : 2
Format : DTS
Format/Info : Digital Theater Systems
Format profile : MA / Core
Codec ID : A_DTS
Duration : 1 h 43 min
Bit rate mode : Variable / Constant
Bit rate : 1 472 kb/s / 768 kb/s
Channel(s) : 6 channels
Channel positions : Front: L C R, Side: L R, LFE
Sampling rate : 48.0 kHz
Frame rate : 93.750 FPS (512 SPF)
Bit depth : 16 bits
Compression mode : Lossless / Lossy
Stream size : 1.07 GiB (5%)
Title : Nine.Months.1995.1080p.BluRay.REMUX.AVC.DTS-HD.MA.5.1-FGT
Language : English
Default : Yes
Forced : No

Audio #2
ID : 3
Format : DTS
Format/Info : Digital Theater Systems
Codec ID : A_DTS
Duration : 1 h 43 min
Bit rate mode : Constant
Bit rate : 768 kb/s
Channel(s) : 6 channels
Channel positions : Front: L C R, Side: L R, LFE
Sampling rate : 48.0 kHz
Frame rate : 93.750 FPS (512 SPF)
Bit depth : 16 bits
Compression mode : Lossy
Stream size : 568 MiB (3%)
Title : Nine.Months.1995.1080p.BluRay.REMUX.AVC.DTS-HD.MA.5.1-FGT
Language : English
Default : No
Forced : No

Text
ID : 4
Format : PGS
Muxing mode : zlib
Codec ID : S_HDMV/PGS
Codec ID/Info : Picture based subtitle format used on BDs/HD-DVDs
Duration : 1 h 43 min
Bit rate : 23.5 kb/s
Count of elements : 3393
Stream size : 17.3 MiB (0%)
Title : English-PGS
Language : English
Default : Yes
Forced : No

Menu
00:00:00.000 : en:Chapter 01
00:01:34.469 : en:Chapter 02
00:09:42.957 : en:Chapter 03
00:15:57.122 : en:Chapter 04
00:28:47.058 : en:Chapter 05
00:39:00.254 : en:Chapter 06
00:45:19.717 : en:Chapter 07
00:55:09.681 : en:Chapter 08
01:06:56.220 : en:Chapter 09
01:15:17.221 : en:Chapter 10
01:22:15.805 : en:Chapter 11



上传的附件:
最新回复 (0)
返回