[GSCQ]安多弗 Andover.2018.1080p.BluRay.REMUX.AVC.DTS-HD.MA.5.1-FGT 21GB 2018 欧美 喜剧

aostterm 2018-10-20 16:01 1452

Andover.2018.1080p.BluRay.REMUX.AVC.DTS-HD.MA.5.1-FGT

◎译  名 安多弗/安杜佛/以上

◎片  名 Andover

◎年  代 2018

◎产  地 美国

◎类  别 剧情/喜剧/爱情

◎语  言 英语

◎上映日期 2018-05-04(美国)

◎片  长 91分钟

◎导  演 Scott Perlman

◎主  演 乔纳森·斯沃曼 Jonathan Silverman

      詹妮佛·芬尼甘 Jennifer Finnigan

      丝柯·泰勒-考普顿 Scout Taylor-Compton

      斯蒂文·鲍尔 Steven Bauer

      安吉拉·金赛 Angela Kinsey

      白灵 Ling Bai

      乔纳森·利普尼基 Jonathan Lipnicki

      理查德·坎德 Richard Kind

      贝丝·格兰特 Beth Grant


◎简  介


  A genetics professor clones his dead wife, over and over, in a desperate attempt to get her back exactly as she was.


Video
ID : 1
Format : AVC
Format/Info : Advanced Video Codec
Format profile : High@L4.1
Format settings : CABAC / 4 Ref Frames
Format settings, CABAC : Yes
Format settings, ReFrames : 4 frames
Codec ID : V_MPEG4/ISO/AVC
Duration : 1 h 31 min
Bit rate mode : Variable
Bit rate : 28.9 Mb/s
Maximum bit rate : 38.0 Mb/s
Width : 1 920 pixels
Height : 1 080 pixels
Display aspect ratio : 16:9
Frame rate mode : Constant
Frame rate : 23.976 (24000/1001) FPS
Color space : YUV
Chroma subsampling : 4:2:0
Bit depth : 8 bits
Scan type : Progressive
Bits/(Pixel*Frame) : 0.581
Stream size : 18.5 GiB (85%)
Title : Andover.2018.1080p.BluRay.REMUX.AVC.DTS-HD.MA.5.1-FGT
Language : English
Default : No
Forced : No

Audio #1
ID : 2
Format : DTS
Format/Info : Digital Theater Systems
Format profile : MA / Core
Codec ID : A_DTS
Duration : 1 h 31 min
Bit rate mode : Variable / Constant
Bit rate : 3 360 kb/s / 1 509 kb/s
Channel(s) : 6 channels
Channel positions : Front: L C R, Side: L R, LFE
Sampling rate : 48.0 kHz
Frame rate : 93.750 FPS (512 SPF)
Bit depth : 24 bits
Compression mode : Lossless / Lossy
Stream size : 2.15 GiB (10%)
Title : Andover.2018.1080p.BluRay.REMUX.AVC.DTS-HD.MA.5.1-FGT
Language : English
Default : Yes
Forced : No

Audio #2
ID : 3
Format : DTS
Format/Info : Digital Theater Systems
Codec ID : A_DTS
Duration : 1 h 31 min
Bit rate mode : Constant
Bit rate : 1 509 kb/s
Channel(s) : 6 channels
Channel positions : Front: L C R, Side: L R, LFE
Sampling rate : 48.0 kHz
Frame rate : 93.750 FPS (512 SPF)
Bit depth : 24 bits
Compression mode : Lossy
Stream size : 989 MiB (4%)
Title : Andover.2018.1080p.BluRay.REMUX.AVC.DTS-HD.MA.5.1-FGT
Language : English
Default : No
Forced : No

Text
ID : 4
Format : PGS
Muxing mode : zlib
Codec ID : S_HDMV/PGS
Codec ID/Info : Picture based subtitle format used on BDs/HD-DVDs
Duration : 1 h 31 min
Bit rate : 65.4 kb/s
Count of elements : 2448
Stream size : 42.8 MiB (0%)
Title : English-PGS
Language : English
Default : Yes
Forced : No

Menu
00:00:00.000 : en:Chapter 01
00:09:24.689 : en:Chapter 02
00:19:23.412 : en:Chapter 03
00:29:35.064 : en:Chapter 04
00:37:49.350 : en:Chapter 05
00:46:33.832 : en:Chapter 06
00:55:26.781 : en:Chapter 07
01:04:24.735 : en:Chapter 08
01:13:20.145 : en:Chapter 09
01:23:18.785 : en:Chapter 10
01:31:39.535 : en:Chapter 11




上传的附件:
最新回复 (0)
返回