[GSCQ]外野 The.Outer.Wild.2018.1080p.WEB-DL.DD5.1.H264-FGT 2.88GB 2018 欧美 科幻

solomovie 2018-10-20 15:57 2076

The.Outer.Wild.2018.1080p.WEB-DL.DD5.1.H264-FGT

◎译  名 外野

◎片  名 The Outer Wild

◎年  代 2018

◎产  地 美国

◎类  别 科幻/恐怖/惊悚

◎语  言 英语

◎IMDb评分  N/A

◎IMDb链接  https://www.imdb.com/title/tt6958520/

◎片  长 1 h 24 min

◎导  演 Philip Chidel

◎主  演 Lauren McKnight ... Laura

      Christian Oliver Christian Oliver ... Cole

      Jeffrey Vincent Parise ... Hank

      Tory Taranova ... Elsie


◎简  介


  After an unnatural event leaves mankind nearly extinct| a runaway girl and a rogue bounty hunter brave a dangerous wilderness to find a fabled sanctuary that caneither save or destroy what's left of humanity.


Video
ID : 1
Format : AVC
Format/Info : Advanced Video Codec
Format profile : High@L4
Format settings : CABAC / 5 Ref Frames
Format settings, CABAC : Yes
Format settings, ReFrames : 5 frames
Codec ID : V_MPEG4/ISO/AVC
Duration : 1 h 24 min
Bit rate : 4 495 kb/s
Width : 1 908 pixels
Height : 792 pixels
Display aspect ratio : 2.40:1
Frame rate mode : Constant
Frame rate : 23.976 (23976/1000) FPS
Color space : YUV
Chroma subsampling : 4:2:0
Bit depth : 8 bits
Scan type : Progressive
Bits/(Pixel*Frame) : 0.124
Stream size : 2.65 GiB (92%)
Title : The.Outer.Wild.2018.1080p.WEB-DL.DD5.1.H264-FGT
Language : English
Default : Yes
Forced : No
Color range : Limited
Color primaries : BT.709
Transfer characteristics : BT.709
Matrix coefficients : BT.709

Audio
ID : 2
Format : AC-3
Format/Info : Audio Coding 3
Codec ID : A_AC3
Duration : 1 h 24 min
Bit rate mode : Constant
Bit rate : 384 kb/s
Channel(s) : 6 channels
Channel positions : Front: L C R, Side: L R, LFE
Sampling rate : 48.0 kHz
Frame rate : 31.250 FPS (1536 SPF)
Bit depth : 16 bits
Compression mode : Lossy
Stream size : 232 MiB (8%)
Title : The.Outer.Wild.2018.1080p.WEB-DL.DD5.1.H264-FGT
Language : English
Service kind : Complete Main
Default : Yes
Forced : No

Menu
00:00:00.000 : en:1
00:04:30.000 : en:2
00:13:05.000 : en:3
00:22:27.000 : en:4
00:30:56.000 : en:5
00:40:23.000 : en:6
00:51:47.000 : en:7
01:02:44.000 : en:8
01:13:30.000 : en:9
01:22:25.000 : en:10





上传的附件:
最新回复 (0)
返回