[GSCQ]与海怪同行 Sea.Monsters.2017.1080p.WEB-DL.AAC2.0.H264-FGT 2.72GB 2017 欧美 动画

似水柔情 2018-10-20 15:52 1596

Sea.Monsters.2017.1080p.WEB-DL.AAC2.0.H264-FGT

◎译  名 与海怪同行

◎片  名 Sea Monsters

◎年  代 2017

◎产  地 美国

◎类  别 动画

◎语  言 英语

◎IMDb评分  N/A

◎IMDb链接  https://www.imdb.com/title/tt7073350/

◎片  长 1 h 12 min

◎导  演 Evan Tramel

◎主  演 Kj Schrock

      Sarah Taylor


◎简  介


  Fish that swimming in the city where there is danger in the village of the citizens.


Video
ID : 1
Format : AVC
Format/Info : Advanced Video Codec
Format profile : High@L4
Format settings : CABAC / 4 Ref Frames
Format settings, CABAC : Yes
Format settings, ReFrames : 4 frames
Codec ID : V_MPEG4/ISO/AVC
Duration : 1 h 12 min
Bit rate : 5 128 kb/s
Width : 1 904 pixels
Height : 1 064 pixels
Display aspect ratio : 16:9
Frame rate mode : Constant
Frame rate : 23.976 FPS
Color space : YUV
Chroma subsampling : 4:2:0
Bit depth : 8 bits
Scan type : Progressive
Bits/(Pixel*Frame) : 0.106
Stream size : 2.59 GiB (95%)
Title : Sea.Monsters.2018.1080p.WEB-DL.AAC2.0.H264-FGT
Language : English
Default : Yes
Forced : No
Color range : Limited
Color primaries : BT.709
Transfer characteristics : BT.709
Matrix coefficients : BT.709

Audio
ID : 2
Format : AAC
Format/Info : Advanced Audio Codec
Format profile : LC
Codec ID : A_AAC-2
Duration : 1 h 12 min
Bit rate : 256 kb/s
Channel(s) : 2 channels
Channel positions : Front: L R
Sampling rate : 48.0 kHz
Frame rate : 46.875 FPS (1024 SPF)
Compression mode : Lossy
Stream size : 132 MiB (5%)
Title : Sea.Monsters.2018.1080p.WEB-DL.AAC2.0.H264-FGT
Language : English
Default : Yes
Forced : No

Menu
00:00:00.000 : en:Chapter 1
00:10:21.621 : en:Chapter 2
00:20:57.255 : en:Chapter 3
00:33:44.021 : en:Chapter 4
00:44:04.640 : en:Chapter 5
00:51:11.065 : en:Chapter 6
01:02:50.764 : en:Chapter 7
01:09:40.172 : en:Chapter 8




上传的附件:
最新回复 (0)
返回