[GSCQ]外星人探险 Alien.Expedition.2018.1080p.WEB-DL.DD5.1.H264-FGT 3.23GB 2018 欧美 科幻

似水柔情 2018-10-20 15:51 2424

Alien.Expedition.2018.1080p.WEB-DL.DD5.1.H264-FGT

◎译  名 外星人探险

◎片  名 Alien Expedition

◎年  代 2018

◎产  地 美国

◎类  别 科幻

◎语  言 英语

◎IMDb评分  N/A

◎IMDb链接  https://www.imdb.com/title/tt8305690/

◎片  长 1 h 34 min

◎导  演 Wallace Brothers

◎主  演 C.J. Baker ... Fen

      Edward Gusts ... Mason

      Ethan McDowell ... Sato

◎简  介


  After a deep space exploration vessel discovers a potentially habitable planet| a scouting team composed of human and biorobotic individuals is dispatched to
investigate the planet's resources. Once on the ground| their reconnaissance mission soon turns into a battle for survival against the planet's hostile alien
lifeforms.


Video
ID : 1
Format : AVC
Format/Info : Advanced Video Codec
Format profile : High@L4
Format settings : CABAC / 5 Ref Frames
Format settings, CABAC : Yes
Format settings, ReFrames : 5 frames
Codec ID : V_MPEG4/ISO/AVC
Duration : 1 h 34 min
Bit rate : 4 512 kb/s
Width : 1 920 pixels
Height : 816 pixels
Display aspect ratio : 2.35:1
Frame rate mode : Constant
Frame rate : 23.976 (23976/1000) FPS
Color space : YUV
Chroma subsampling : 4:2:0
Bit depth : 8 bits
Scan type : Progressive
Bits/(Pixel*Frame) : 0.120
Stream size : 2.97 GiB (92%)
Title : Alien.Expedition.2018.1080p.WEB-DL.DD5.1.H264-FGT
Language : English
Default : Yes
Forced : No
Color range : Limited
Color primaries : BT.709
Transfer characteristics : BT.709
Matrix coefficients : BT.709

Audio
ID : 2
Format : AC-3
Format/Info : Audio Coding 3
Codec ID : A_AC3
Duration : 1 h 34 min
Bit rate mode : Constant
Bit rate : 384 kb/s
Channel(s) : 6 channels
Channel positions : Front: L C R, Side: L R, LFE
Sampling rate : 48.0 kHz
Frame rate : 31.250 FPS (1536 SPF)
Bit depth : 16 bits
Compression mode : Lossy
Stream size : 259 MiB (8%)
Title : Alien.Expedition.2018.1080p.WEB-DL.DD5.1.H264-FGT
Language : English
Service kind : Complete Main
Default : Yes
Forced : No




上传的附件:
最新回复 (0)
返回